<?xml version="1.0" standalone="no"?>
<!DOCTYPE svg PUBLIC "-//W3C//DTD SVG 1.1//EN" "http://www.w3.org/Graphics/SVG/1.1/DTD/svg11.dtd" >
<svg xmlns="http://www.w3.org/2000/svg" xmlns:xlink="http://www.w3.org/1999/xlink" version="1.1">
<metadata>
Created by FontForge 20170731 at Tue Feb  7 14:33:10 2017
 By Aleksey,,,
Copyright 2011 The Montserrat Project Authors (julieta.ulanovsky@gmail.com)
</metadata>
<defs>
<font id="Montserrat-LightItalic" horiz-adv-x="0" >
  <font-face 
    font-family="Montserrat Light"
    font-weight="300"
    font-style="italic"
    font-stretch="normal"
    units-per-em="1000"
    panose-1="0 0 4 0 0 0 0 0 0 0"
    ascent="800"
    descent="-200"
    x-height="524"
    cap-height="700"
    bbox="-559 -368 1549 1106"
    underline-thickness="50"
    underline-position="-150"
    slope="-11.3"
    unicode-range="U+000D-FB02"
  />
<missing-glyph horiz-adv-x="587" 
d="M40 0v700h507v-700h-507zM120 70h347v560h-347v-560z" />
    <glyph glyph-name="fi" unicode="fi" horiz-adv-x="581" 
d="M289 659q-36 -30 -46 -79l-14 -70h153l-10 -53h-154l-91 -457h-67l92 457h-68l10 53h68l14 69q11 52 40 90.5t68.5 59t81.5 20.5q54 0 91 -24l-23 -54q-31 18 -65 18q-44 0 -80 -30zM536 524l-104 -524h-67l104 524h67zM568.5 711.5q10.5 -11.5 10.5 -28.5
q0 -23 -17 -39.5t-40 -16.5q-16 0 -27 11.5t-11 28.5q0 23 17 39.5t40 16.5q17 0 27.5 -11.5z" />
    <glyph glyph-name="fl" unicode="fl" horiz-adv-x="590" 
d="M218 457l-91 -457h-67l91 457h-67l10 53h68l13 65q15 75 69.5 122.5t124.5 47.5q24 -1 46.5 -7.5t36.5 -15.5l-14 -61q-35 23 -70 24q-45 0 -80.5 -30.5t-45.5 -78.5l-13 -66h153l-10 -53h-154zM516 742h67l-148 -742h-67z" />
    <glyph glyph-name=".notdef" horiz-adv-x="587" 
d="M40 0v700h507v-700h-507zM120 70h347v560h-347v-560z" />
    <glyph glyph-name=".null" 
 />
    <glyph glyph-name="nonmarkingreturn" unicode="&#xd;" horiz-adv-x="275" 
 />
    <glyph glyph-name="NULL" 
 />
    <glyph glyph-name="NULL" 
 />
    <glyph glyph-name="space" unicode=" " horiz-adv-x="275" 
 />
    <glyph glyph-name="exclam" unicode="!" horiz-adv-x="203" 
d="M223 687l-33 -168l-72 -314h-46l54 314l33 168h64zM97.5 72.5q11.5 -11.5 11.5 -30.5q0 -20 -14.5 -35t-34.5 -15q-18 0 -29 11.5t-11 30.5q0 21 14 35.5t34 14.5q18 0 29.5 -11.5z" />
    <glyph glyph-name="quotedbl" unicode="&#x22;" horiz-adv-x="300" 
d="M202 700l-43 -218h-54l43 218h54zM327 700l-43 -218h-54l43 218h54z" />
    <glyph glyph-name="numbersign" unicode="#" horiz-adv-x="684" 
d="M684 451h-147l-44 -208h144l-8 -52h-147l-40 -191h-52l40 191h-209l-40 -191h-52l40 191h-144l8 52h147l44 208h-144l8 53h147l41 196h53l-41 -196h209l41 196h52l-41 -196h143zM441 243l44 208h-209l-44 -208h209z" />
    <glyph glyph-name="dollar" unicode="$" horiz-adv-x="603" 
d="M222.5 609q-46.5 -28 -50.5 -76l-1 -14q0 -37 21 -61t52.5 -38t86.5 -32q63 -20 102 -38.5t66 -53t27 -89.5q0 -16 -1 -24q-5 -56 -41 -98t-94.5 -65.5t-132.5 -23.5l-24 -126h-54l25 130q-59 8 -112 35t-91 66l39 59q41 -46 101 -72t121 -26q86 0 137 36t51 97
q0 38 -21.5 63t-53.5 39t-88 32q-64 21 -101.5 38.5t-64.5 51t-27 87.5q0 58 31.5 102.5t88 69.5t130.5 26l22 114h54l-22 -117q46 -5 89.5 -21t75.5 -39l-36 -60q-40 28 -89.5 42t-95.5 14q-73 0 -119.5 -28z" />
    <glyph glyph-name="percent" unicode="%" horiz-adv-x="1135" 
d="M158 331.5q-41 46.5 -41 131.5q0 109 52.5 175.5t145.5 66.5q76 0 117 -47t41 -132q0 -109 -52.5 -175t-146.5 -66q-75 0 -116 46.5zM386.5 381.5q37.5 53.5 37.5 142.5q0 66 -29 102t-83 36q-71 0 -108.5 -54t-37.5 -142q0 -66 28.5 -102t82.5 -36q72 0 109.5 53.5z
M340 0h-52l527 700h52zM738 41.5q-41 46.5 -41 131.5q0 109 52.5 175.5t145.5 66.5q76 0 117 -47t41 -132q0 -109 -52.5 -175t-146.5 -66q-75 0 -116 46.5zM966.5 91.5q37.5 53.5 37.5 142.5q0 66 -29 102t-83 36q-71 0 -108.5 -54t-37.5 -142q0 -66 28.5 -102t82.5 -36
q72 0 109.5 53.5z" />
    <glyph glyph-name="ampersand" unicode="&#x26;" horiz-adv-x="655" 
d="M562 -9l-100 115q-54 -53 -111.5 -81t-115.5 -28q-55 0 -98.5 22t-68.5 61t-25 88q0 76 50.5 125.5t140.5 95.5q-27 41 -38.5 74.5t-11.5 66.5l1 18q3 44 27.5 79t66 55t91.5 20q65 0 103.5 -33.5t38.5 -88.5q0 -50 -27.5 -87t-68 -63t-107.5 -59q46 -64 152 -185
q51 62 93 142l44 -38q-51 -89 -101 -146l104 -118zM246 481.5q9 -30.5 35 -69.5q58 28 93.5 50t59 51.5t23.5 67.5q0 35 -23 55.5t-64 20.5q-53 0 -90.5 -33t-40.5 -82q-2 -30 7 -60.5zM426 147q-115 134 -164 201q-77 -39 -118.5 -79.5t-41.5 -98.5q0 -53 37.5 -86
t97.5 -33q95 0 189 96z" />
    <glyph glyph-name="quotesingle" unicode="'" horiz-adv-x="175" 
d="M202 700l-43 -218h-54l43 218h54z" />
    <glyph glyph-name="parenleft" unicode="(" horiz-adv-x="297" 
d="M240.5 543q-52.5 -113 -78.5 -240q-19 -92 -19 -183q0 -142 47 -244h-58q-51 106 -51 255q0 90 19 184q25 124 77.5 235t125.5 192h62q-72 -86 -124.5 -199z" />
    <glyph glyph-name="parenright" unicode=")" horiz-adv-x="311" 
d="M127.5 74q52.5 113 78.5 240q19 92 19 183q0 142 -47 244h58q51 -106 51 -255q0 -90 -19 -184q-25 -124 -77.5 -235t-125.5 -192h-62q72 86 124.5 199z" />
    <glyph glyph-name="asterisk" unicode="*" horiz-adv-x="344" 
d="M350 487l-95 56v-110h-39l1 110l-96 -56l-19 36l95 54l-95 54l19 37l95 -56v110h39v-110l95 56l19 -37l-96 -54l96 -54z" />
    <glyph glyph-name="plus" unicode="+" horiz-adv-x="489" 
d="M468 347l-9 -50h-184l-36 -182h-48l36 182h-182l9 50h183l37 183h48l-37 -183h183z" />
    <glyph glyph-name="comma" unicode="," horiz-adv-x="184" 
d="M78 71q12 -11 12 -28q0 -12 -3.5 -20t-12.5 -24l-60 -109h-40l49 108q-21 12 -21 37q0 19 14 33t34 14q16 0 28 -11z" />
    <glyph glyph-name="hyphen" unicode="-" horiz-adv-x="363" 
d="M310 327l-10 -50h-231l10 50h231z" />
    <glyph glyph-name="period" unicode="." horiz-adv-x="196" 
d="M86.5 72.5q11.5 -11.5 11.5 -30.5q0 -20 -14.5 -35t-34.5 -15q-18 0 -29 11.5t-11 30.5q0 21 14 35.5t34 14.5q18 0 29.5 -11.5z" />
    <glyph glyph-name="slash" unicode="/" horiz-adv-x="333" 
d="M407 821l-387 -945h-60l387 945h60z" />
    <glyph glyph-name="zero" unicode="0" horiz-adv-x="797" 
d="M656 635.5q59 -67.5 59 -192.5q0 -133 -44 -234t-126.5 -157t-196.5 -56q-112 0 -171.5 67.5t-59.5 192.5q0 133 44 234t127 157t197 56q112 0 171 -67.5zM317.5 597.5q-64.5 -49.5 -97 -137t-32.5 -200.5q0 -101 43 -154t127 -53q92 0 156.5 49.5t97.5 137t33 200.5
q0 101 -43.5 154t-127.5 53q-92 0 -156.5 -49.5z" />
    <glyph glyph-name="one" unicode="1" horiz-adv-x="431" 
d="M129 700h238l-136 -700h-69l125 637h-169z" />
    <glyph glyph-name="two" unicode="2" horiz-adv-x="638" 
d="M405 307l-282 -244h407l-12 -63h-496l11 58l332 287q63 54 100.5 103.5t40.5 87.5q4 50 -31.5 78t-102.5 28q-50 0 -107.5 -23t-108.5 -63l-21 52q60 45 127 70t130 25q88 0 138 -37t50 -101q0 -13 -1 -19q-10 -98 -174 -239z" />
    <glyph glyph-name="three" unicode="3" horiz-adv-x="648" 
d="M604 654l-298 -252l43 -2q97 -4 153 -45t56 -112q0 -70 -40 -126t-111.5 -88.5t-162.5 -32.5q-64 0 -123.5 18.5t-101.5 49.5l41 55q36 -30 86 -46.5t105 -16.5q71 0 125 23t83.5 63.5t29.5 91.5q0 57 -47 87.5t-135 30.5h-90l8 46l285 239h-346l11 63h438z" />
    <glyph glyph-name="four" unicode="4" horiz-adv-x="652" 
d="M592 253l-12 -63h-112l-37 -190h-65l37 190h-354l11 56l353 454h68l-345 -447h279l38 195h65l-38 -195h112z" />
    <glyph glyph-name="five" unicode="5" horiz-adv-x="684" 
d="M280 637l-43 -218q31 5 69.5 8.5t67.5 3.5q100 0 158 -47.5t58 -125.5q0 -74 -39 -134t-109 -94t-158 -34q-60 0 -122.5 20.5t-108.5 54.5l39 55q41 -32 93.5 -50t104.5 -18q66 0 117 24t80 67t29 97q0 57 -44 89.5t-124 32.5q-37 0 -93.5 -6t-96.5 -16l68 354h424
l-12 -63h-358z" />
    <glyph glyph-name="six" unicode="6" horiz-adv-x="715" 
d="M173.5 62.5q-59.5 66.5 -59.5 186.5q0 126 46.5 230t128 164t181.5 60q49 0 102 -14t94 -39l-38 -54q-33 22 -76.5 35t-85.5 13q-114 0 -187 -90t-91 -247q34 66 94 102t138 36q93 0 145.5 -48.5t52.5 -130.5q0 -79 -35.5 -140.5t-98 -95.5t-141.5 -34
q-110 0 -169.5 66.5zM452.5 82q46.5 25 72.5 70t26 103q0 61 -40 97.5t-109 36.5q-56 0 -103.5 -24.5t-76.5 -65t-32 -88.5q-4 -41 14 -76.5t55 -56.5t89 -21q58 0 104.5 25z" />
    <glyph glyph-name="seven" unicode="7" horiz-adv-x="629" 
d="M149 700h513l-10 -57l-444 -643h-74l442 637h-375l-22 -105h-62z" />
    <glyph glyph-name="eight" unicode="8" horiz-adv-x="716" 
d="M585.5 664.5q50.5 -38.5 50.5 -105.5q0 -65 -39.5 -112t-110.5 -72q56 -17 87.5 -56t31.5 -93q0 -69 -37.5 -121t-105 -80.5t-155.5 -28.5q-104 0 -162.5 44t-58.5 122q0 79 51.5 134t140.5 79q-44 17 -68.5 50.5t-24.5 78.5q0 59 32.5 104.5t91 70t135.5 24.5
q91 0 141.5 -38.5zM296.5 611q-51.5 -40 -51.5 -108q0 -49 36.5 -77t103.5 -28q87 0 138 40.5t51 108.5q0 49 -36.5 76.5t-103.5 27.5q-86 0 -137.5 -40zM213.5 297.5q-60.5 -45.5 -60.5 -121.5q0 -58 43 -90.5t121 -32.5q101 0 161.5 46.5t60.5 124.5q0 55 -43 87t-122 32
q-100 0 -160.5 -45.5z" />
    <glyph glyph-name="nine" unicode="9" horiz-adv-x="713" 
d="M197.5 68q43.5 -13 85.5 -13q113 0 186 90.5t91 247.5q-34 -67 -94 -102.5t-138 -35.5q-92 0 -144 48t-52 131q0 78 35 139.5t97 95.5t141 34q110 0 169.5 -66t59.5 -186q0 -127 -46.5 -231t-128 -164t-180.5 -60q-49 0 -102 14.5t-94 39.5l38 53q33 -22 76.5 -35z
M296.5 617q-46.5 -25 -72.5 -70t-26 -103q0 -61 40 -97t109 -36q56 0 103 24t76 65t32 88q4 41 -13.5 76.5t-54.5 56.5t-89 21q-58 0 -104.5 -25z" />
    <glyph glyph-name="colon" unicode=":" horiz-adv-x="197" 
d="M146.5 369.5q11.5 -11.5 11.5 -30.5q0 -20 -14.5 -35t-34.5 -15q-18 0 -29 11.5t-11 30.5q0 21 14 35.5t34 14.5q18 0 29.5 -11.5zM87.5 72.5q11.5 -11.5 11.5 -30.5q0 -20 -14.5 -35t-34.5 -15q-18 0 -29 11.5t-11 30.5q0 21 14 35.5t34 14.5q18 0 29.5 -11.5z" />
    <glyph glyph-name="semicolon" unicode=";" horiz-adv-x="186" 
d="M136.5 369.5q11.5 -11.5 11.5 -30.5q0 -20 -14.5 -35t-34.5 -15q-18 0 -29 11.5t-11 30.5q0 21 14 35.5t34 14.5q18 0 29.5 -11.5zM79 71q12 -11 12 -28q0 -12 -3.5 -20t-12.5 -24l-60 -109h-40l49 108q-21 12 -21 37q0 19 14 33t34 14q16 0 28 -11z" />
    <glyph glyph-name="less" unicode="&#x3c;" horiz-adv-x="490" 
d="M508 544l-10 -58l-399 -162l333 -162l-10 -53l-376 186l11 64z" />
    <glyph glyph-name="equal" unicode="=" horiz-adv-x="490" 
d="M489 449l-9 -49h-414l9 49h414zM448 244l-9 -49h-414l9 49h414z" />
    <glyph glyph-name="greater" unicode="&#x3e;" horiz-adv-x="491" 
d="M9 112l10 58l399 162l-333 162l10 53l376 -186l-11 -64z" />
    <glyph glyph-name="question" unicode="?" horiz-adv-x="421" 
d="M124.5 641.5q54.5 45.5 139.5 45.5q80 0 126.5 -40t46.5 -110q0 -38 -14 -69t-34 -54.5t-54 -55.5q-44 -44 -65 -73t-24 -68h-54q4 51 28.5 87.5t68.5 79.5q43 43 63.5 74t20.5 73q0 47 -30 72t-86 25q-61 0 -97.5 -29t-46.5 -84l-55 1q12 80 66.5 125.5zM235.5 72.5
q11.5 -11.5 11.5 -30.5q0 -20 -14.5 -35t-34.5 -15q-18 0 -29 11.5t-11 30.5q0 21 14 35.5t34 14.5q18 0 29.5 -11.5z" />
    <glyph glyph-name="at" unicode="@" horiz-adv-x="995" 
d="M769 662.5q89 -48.5 138 -135t49 -197.5q0 -92 -28.5 -166.5t-77 -117t-106.5 -42.5q-44 0 -68 25t-23 70l4 42q-37 -57 -94.5 -88.5t-123.5 -31.5q-60 0 -108.5 26.5t-75.5 74.5t-27 110q0 77 36 142.5t99 104t139 38.5q69 0 118 -33.5t62 -79.5l15 107h64l-54 -388
q-1 -6 -1 -18q0 -26 13 -40t37 -14q37 0 71 37t55 99.5t21 135.5q0 98 -42 174t-119.5 119t-181.5 43q-124 0 -231.5 -60.5t-171 -163t-63.5 -223.5q0 -95 43 -168.5t121 -114.5t179 -41q44 0 98 14t95 38l18 -47q-42 -26 -103.5 -42t-114.5 -16q-114 0 -202.5 47.5
t-137.5 132t-49 191.5q0 138 71 254t191.5 183.5t261.5 67.5q115 0 204 -48.5zM401 426q-48 -29 -76 -78t-28 -107q0 -70 42.5 -114.5t112.5 -44.5q58 0 106 29.5t76 79.5t28 108q0 69 -43 112.5t-114 43.5q-56 0 -104 -29z" />
    <glyph glyph-name="A" unicode="A" horiz-adv-x="712" 
d="M580 0l-52 186h-389l-113 -186h-73l430 700h72l199 -700h-74zM176 248h335l-106 379z" />
    <glyph glyph-name="B" unicode="B" horiz-adv-x="721" 
d="M614.5 319q34.5 -38 34.5 -96q0 -68 -36 -118.5t-103 -77.5t-156 -27h-296l140 700h292q92 0 142.5 -38t50.5 -106q0 -72 -45 -123.5t-121 -65.5q63 -10 97.5 -48zM575 610q-35 26 -100 26h-221l-49 -244h220q85 0 135 39t50 106q0 47 -35 73zM520 104.5
q58 41.5 58 114.5q0 53 -42.5 81.5t-121.5 28.5h-222l-53 -266h220q103 0 161 41.5z" />
    <glyph glyph-name="C" unicode="C" horiz-adv-x="728" 
d="M595.5 678.5q63.5 -26.5 109.5 -73.5l-46 -49q-39 42 -91 64.5t-111 22.5q-86 0 -161 -43.5t-119.5 -117t-44.5 -160.5q0 -73 34.5 -133t95.5 -95t136 -35q59 0 116 22.5t103 62.5l38 -45q-57 -49 -126.5 -77t-139.5 -28q-93 0 -167.5 43t-117 117t-42.5 164
q0 104 55 193t147 141.5t197 52.5q71 0 134.5 -26.5z" />
    <glyph glyph-name="D" unicode="D" horiz-adv-x="795" 
d="M623.5 661.5q70.5 -38.5 110 -106t39.5 -152.5q0 -11 -2 -37q-10 -101 -69 -185t-151 -132.5t-196 -48.5h-296l139 700h264q91 0 161.5 -38.5zM703 394q0 69 -32.5 124t-89.5 86.5t-129 31.5h-197l-115 -573h227q82 0 155.5 39.5t121.5 108t57 151.5q2 22 2 32z" />
    <glyph glyph-name="E" unicode="E" horiz-adv-x="650" 
d="M654 636h-400l-50 -249h357l-13 -63h-357l-52 -261h412l-12 -63h-481l140 700h468z" />
    <glyph glyph-name="F" unicode="F" horiz-adv-x="560" 
d="M623 636h-369l-54 -267h330l-12 -63h-330l-61 -306h-69l140 700h438z" />
    <glyph glyph-name="G" unicode="G" horiz-adv-x="769" 
d="M633 342h62l-51 -256q-122 -92 -253 -92q-93 0 -168.5 43t-118 117t-42.5 164q0 104 55 193t148 141.5t200 52.5q71 0 135.5 -25t109.5 -70l-45 -49q-38 39 -92 60.5t-113 21.5q-87 0 -162.5 -43.5t-120.5 -117.5t-45 -161q0 -74 35 -134t96.5 -95t137.5 -35q97 0 189 62
z" />
    <glyph glyph-name="H" unicode="H" horiz-adv-x="887" 
d="M750 700h69l-140 -700h-69l63 316h-437l-63 -316h-69l140 700h69l-64 -321h437z" />
    <glyph glyph-name="I" unicode="I" horiz-adv-x="289" 
d="M266 700l-140 -700h-69l140 700h69z" />
    <glyph glyph-name="J" unicode="J" horiz-adv-x="479" 
d="M473 700l-98 -493q-20 -100 -82.5 -155t-154.5 -55q-56 0 -100 25.5t-71 73.5l46 53q24 -41 59.5 -62.5t77.5 -21.5q61 0 101.5 37t54.5 106l86 428h-252l12 64h321z" />
    <glyph glyph-name="K" unicode="K" horiz-adv-x="694" 
d="M741 700l-343 -311l220 -389h-81l-196 337l-179 -162l-35 -175h-69l140 700h69l-84 -420l468 420h90z" />
    <glyph glyph-name="L" unicode="L" horiz-adv-x="513" 
d="M139 63h308l-12 -63h-377l140 700h69z" />
    <glyph glyph-name="M" unicode="M" horiz-adv-x="939" 
d="M829 700h83l-136 -700h-62l118 608l-380 -533h-37l-173 533l-118 -608h-63l136 700h84l171 -529z" />
    <glyph glyph-name="N" unicode="N" horiz-adv-x="796" 
d="M705 700h68l-140 -700h-73l-314 592l-119 -592h-69l140 700h73l314 -593z" />
    <glyph glyph-name="O" unicode="O" horiz-adv-x="819" 
d="M637.5 660q77.5 -45 119.5 -122.5t37 -171.5q-4 -101 -60.5 -186.5t-147 -135.5t-193.5 -50q-94 0 -169.5 43t-118.5 117t-43 164q0 105 55 194t147.5 141t198.5 52q97 0 174.5 -45zM298 598.5q-75 -43.5 -120.5 -117t-45.5 -159.5q0 -73 35 -134t96.5 -96t135.5 -35
q84 0 159 44t120 118t45 160q0 73 -35 133t-95.5 95t-134.5 35q-85 0 -160 -43.5z" />
    <glyph glyph-name="P" unicode="P" horiz-adv-x="681" 
d="M627 651q60 -49 60 -138q0 -87 -39.5 -151.5t-113 -100t-173.5 -35.5h-189l-45 -226h-69l140 700h258q111 0 171 -49zM553 344.5q66 55.5 66 154.5q0 67 -46 102t-132 35h-187l-69 -347h186q116 0 182 55.5z" />
    <glyph glyph-name="Q" unicode="Q" horiz-adv-x="823" 
d="M813 -62q-40 -37 -85.5 -57t-89.5 -20q-115 0 -218 134q-9 -1 -27 -1q-94 0 -169.5 43t-118.5 117t-43 164q0 105 55 194t147.5 141t198.5 52q94 0 169.5 -42t118.5 -115.5t43 -162.5q0 -88 -39.5 -166.5t-108.5 -134t-154 -77.5q41 -43 78.5 -64t74.5 -21q62 0 137 64z
M167 188q35 -61 96.5 -96t135.5 -35q84 0 159 44t120 118t45 160q0 73 -35 133t-95.5 95t-134.5 35q-85 0 -160 -43.5t-120.5 -117t-45.5 -159.5q0 -73 35 -134z" />
    <glyph glyph-name="R" unicode="R" horiz-adv-x="724" 
d="M636.5 337.5q-55.5 -71.5 -156.5 -97.5l119 -240h-80l-106 228q-32 -2 -49 -2h-192l-45 -226h-69l140 700h260q113 0 173.5 -49t60.5 -139q0 -103 -55.5 -174.5zM558 344.5q66 55.5 66 154.5q0 67 -46 102t-132 35h-192l-69 -347h191q116 0 182 55.5z" />
    <glyph glyph-name="S" unicode="S" horiz-adv-x="603" 
d="M467 691q56 -17 97 -46l-36 -60q-40 28 -89.5 42t-95.5 14q-73 0 -119.5 -28.5t-50.5 -76.5l-1 -14q0 -38 21.5 -62.5t52.5 -38.5t86 -32q63 -21 101.5 -39.5t65.5 -53t27 -89.5q0 -16 -1 -25q-5 -57 -41 -99.5t-95.5 -66t-133.5 -23.5q-73 0 -140.5 29t-113.5 77l39 59
q41 -47 101 -73t121 -26q86 0 137 36.5t51 98.5q0 39 -21.5 64t-54 39.5t-87.5 32.5q-63 20 -101 38t-64.5 52t-26.5 88q0 15 1 23q5 53 38.5 93t90.5 62t128 22q58 0 114 -17z" />
    <glyph glyph-name="T" unicode="T" horiz-adv-x="553" 
d="M629 700l-12 -64h-231l-128 -636h-69l128 636h-230l12 64h530z" />
    <glyph glyph-name="U" unicode="U" horiz-adv-x="769" 
d="M681 287q-28 -138 -115.5 -214t-223.5 -76q-118 0 -184 57.5t-66 161.5q0 36 7 71l83 413h68l-82 -413q-6 -31 -6 -59q0 -80 49.5 -124t138.5 -44q103 0 171 59.5t91 167.5l82 413h69z" />
    <glyph glyph-name="V" unicode="V" horiz-adv-x="658" 
d="M666 700h73l-403 -700h-72l-170 700h75l144 -626z" />
    <glyph glyph-name="W" unicode="W" horiz-adv-x="1012" 
d="M1027 700h72l-351 -700h-71l-94 611l-299 -611h-71l-119 700h75l94 -626l300 625l69 1l95 -626z" />
    <glyph glyph-name="X" unicode="X" horiz-adv-x="664" 
d="M676 700l-295 -337l199 -363h-83l-169 305l-269 -305h-81l317 360l-183 340h81l153 -283l248 283h82z" />
    <glyph glyph-name="Y" unicode="Y" horiz-adv-x="622" 
d="M704 700l-343 -449l-41 -251h-69l41 250l-199 450h72l172 -378l295 378h72z" />
    <glyph glyph-name="Z" unicode="Z" horiz-adv-x="669" 
d="M683 700l-8 -55l-571 -582h478l-10 -63h-569l9 54l570 582h-460l10 64h551z" />
    <glyph glyph-name="bracketleft" unicode="[" horiz-adv-x="307" 
d="M379 742l-11 -56h-126l-152 -754h126l-11 -56h-188l174 866h188z" />
    <glyph glyph-name="backslash" unicode="\" horiz-adv-x="654" 
d="M88 821h60l387 -945h-60z" />
    <glyph glyph-name="bracketright" unicode="]" horiz-adv-x="344" 
d="M2 -124l11 56h126l152 754h-126l11 56h188l-174 -866h-188z" />
    <glyph glyph-name="asciicircum" unicode="^" horiz-adv-x="508" 
d="M445 131h-52l-92 350l-235 -350h-54l265 396h61z" />
    <glyph glyph-name="underscore" unicode="_" horiz-adv-x="552" 
d="M468 -159l-9 -45h-552l9 45h552z" />
    <glyph glyph-name="grave" unicode="`" horiz-adv-x="321" 
d="M224 748l118 -124l-61 -7l-125 100z" />
    <glyph glyph-name="a" unicode="a" horiz-adv-x="676" 
d="M151.5 25.5q-51.5 29.5 -80 82.5t-28.5 121q0 83 38 151.5t103 108t144 39.5t133.5 -39t72.5 -108l29 143h67l-104 -524h-67l21 101q-38 -50 -93 -77.5t-118 -27.5q-66 0 -117.5 29.5zM401 84.5q51 31.5 80.5 85.5t29.5 118q0 80 -49 130t-128 50q-61 0 -112 -31.5
t-81 -85.5t-30 -118q0 -80 49.5 -130t129.5 -50q60 0 111 31.5z" />
    <glyph glyph-name="b" unicode="b" horiz-adv-x="681" 
d="M529.5 497.5q51.5 -29.5 80 -82.5t28.5 -121q0 -83 -38 -151.5t-103 -108t-144 -39.5t-133.5 39.5t-72.5 108.5l-29 -143h-67l148 742h67l-65 -320q38 50 93 77.5t118 27.5q66 0 117.5 -29.5zM279.5 438.5q-50.5 -31.5 -80 -85t-29.5 -117.5q0 -81 49 -131t128 -50
q61 0 112 31.5t81 85.5t30 118q0 80 -49.5 130t-129.5 50q-61 0 -111.5 -31.5z" />
    <glyph glyph-name="c" unicode="c" horiz-adv-x="581" 
d="M157 28q-53 30 -82.5 84t-29.5 124q0 83 38 149.5t103.5 104t145.5 37.5q60 0 109 -20t81 -56l-42 -46q-59 62 -151 62q-60 0 -110 -29t-78.5 -80.5t-28.5 -116.5q0 -82 48.5 -133t127.5 -51q52 0 96 17.5t76 51.5l35 -40q-40 -42 -95 -65t-121 -23q-69 0 -122 30z" />
    <glyph glyph-name="d" unicode="d" horiz-adv-x="681" 
d="M151.5 25.5q-51.5 29.5 -80 82.5t-28.5 121q0 83 38 151.5t103 108t144 39.5t133.5 -39t72.5 -108l73 361h67l-148 -742h-67l21 101q-38 -50 -93 -77.5t-118 -27.5q-66 0 -117.5 29.5zM401 84.5q51 31.5 80.5 85.5t29.5 118q0 80 -49 130t-128 50q-61 0 -112 -31.5
t-81 -85.5t-30 -118q0 -80 49.5 -130t129.5 -50q60 0 111 31.5z" />
    <glyph glyph-name="e" unicode="e" horiz-adv-x="599" 
d="M111 239v-3q0 -83 49.5 -133t132.5 -50q48 0 91 16t76 46l32 -44q-39 -36 -91 -55t-111 -19q-73 0 -128.5 30t-86 84t-30.5 125q0 82 38 148.5t104.5 104.5t146.5 38q104 0 164.5 -62t60.5 -166q0 -25 -5 -60h-443zM193.5 421q-59.5 -49 -76.5 -129h382q1 83 -42.5 130.5
t-122.5 47.5q-81 0 -140.5 -49z" />
    <glyph glyph-name="f" unicode="f" horiz-adv-x="319" 
d="M289 659q-36 -30 -46 -79l-14 -70h153l-10 -53h-154l-91 -457h-67l92 457h-68l10 53h68l14 69q11 52 40 90.5t68.5 59t81.5 20.5q54 0 91 -24l-23 -54q-31 18 -65 18q-44 0 -80 -30z" />
    <glyph glyph-name="g" unicode="g" horiz-adv-x="636" 
d="M103 -175q-53 20 -101 61l34 45q70 -66 180 -69q89 0 145.5 41.5t73.5 119.5l22 102q-36 -47 -87.5 -72.5t-109.5 -25.5q-62 0 -110.5 28t-75.5 78t-27 114q0 78 35.5 142.5t97 101.5t135.5 37q75 0 126 -36t68 -101l28 133h67l-102 -505q-21 -103 -94 -158.5t-188 -55.5
q-64 0 -117 20zM385.5 113q47.5 29 75 79t27.5 109q0 75 -46 121t-120 46q-57 0 -104.5 -29t-75 -79t-27.5 -109q0 -75 46 -121t120 -46q57 0 104.5 29z" />
    <glyph glyph-name="h" unicode="h" horiz-adv-x="662" 
d="M547.5 485.5q48.5 -42.5 48.5 -118.5q0 -26 -6 -55l-62 -312h-68l61 305q4 20 4 42q0 57 -34.5 88.5t-98.5 31.5q-81 -1 -140 -51.5t-77 -137.5l-55 -278h-67l146 742h68l-65 -328q35 55 88.5 84t121.5 30q87 0 135.5 -42.5z" />
    <glyph glyph-name="i" unicode="i" horiz-adv-x="263" 
d="M217 524l-104 -524h-67l104 524h67zM249.5 711.5q10.5 -11.5 10.5 -28.5q0 -23 -17 -39.5t-40 -16.5q-16 0 -27 11.5t-11 28.5q0 23 17 39.5t40 16.5q17 0 27.5 -11.5z" />
    <glyph glyph-name="j" unicode="j" horiz-adv-x="256" 
d="M-76 -138q43 -1 72.5 31t41.5 91l108 540h67l-110 -554q-16 -82 -59 -124t-108 -42q-39 0 -78 17l22 50q16 -7 44 -9zM243.5 711.5q10.5 -11.5 10.5 -28.5q0 -23 -17 -39.5t-40 -16.5q-16 0 -27 11.5t-11 28.5q0 23 17 39.5t40 16.5q17 0 27.5 -11.5z" />
    <glyph glyph-name="k" unicode="k" horiz-adv-x="576" 
d="M593 524l-244 -207l158 -317h-82l-130 271l-148 -126l-29 -145h-67l148 742h67l-100 -503l338 285h89z" />
    <glyph glyph-name="l" unicode="l" horiz-adv-x="273" 
d="M266 742l-148 -742h-67l148 742h67z" />
    <glyph glyph-name="m" unicode="m" horiz-adv-x="1063" 
d="M950 485.5q48 -42.5 48 -119.5q0 -25 -6 -54l-63 -312h-67l60 305q4 20 4 42q0 57 -35 88.5t-98 31.5q-79 -1 -136.5 -49t-77.5 -129l-57 -289h-68l61 305q4 20 4 42q0 57 -35 88.5t-98 31.5q-82 -1 -141 -52t-76 -137l-55 -278h-67l103 524h68l-22 -110q35 55 88.5 84
t121.5 30q80 0 127 -35.5t55 -100.5q79 134 226 136q88 0 136 -42.5z" />
    <glyph glyph-name="n" unicode="n" horiz-adv-x="656" 
d="M541.5 485.5q48.5 -42.5 48.5 -118.5q0 -26 -6 -55l-62 -312h-68l61 305q4 20 4 42q0 57 -34.5 88.5t-98.5 31.5q-81 -1 -140 -51.5t-77 -137.5l-55 -278h-67l103 524h68l-22 -110q35 55 88.5 84t121.5 30q87 0 135.5 -42.5z" />
    <glyph glyph-name="o" unicode="o" horiz-adv-x="621" 
d="M462.5 496.5q54.5 -30.5 84.5 -84.5t30 -124q0 -83 -38.5 -149t-105.5 -103.5t-149 -37.5q-71 0 -125 30.5t-84 84.5t-30 124q0 83 38.5 149t105 103.5t148.5 37.5q71 0 125.5 -30.5zM220 438.5q-50 -29.5 -78.5 -81.5t-28.5 -117q0 -82 48.5 -133t128.5 -51q61 0 111 29
t78.5 81t28.5 118q0 82 -48.5 133t-128.5 51q-61 0 -111 -29.5z" />
    <glyph glyph-name="p" unicode="p" horiz-adv-x="681" 
d="M529.5 498.5q51.5 -29.5 80 -82.5t28.5 -121q0 -83 -38 -151.5t-103 -108t-144 -39.5t-133.5 39.5t-72.5 108.5l-68 -338h-67l143 718h67l-21 -101q38 50 93 77.5t118 27.5q66 0 117.5 -29.5zM279.5 439.5q-50.5 -31.5 -80 -85t-29.5 -117.5q0 -81 49 -131t128 -50
q61 0 112 31.5t81 85.5t30 118q0 81 -49.5 130.5t-129.5 49.5q-61 0 -111.5 -31.5z" />
    <glyph glyph-name="q" unicode="q" horiz-adv-x="680" 
d="M151.5 25.5q-51.5 29.5 -80 82.5t-28.5 121q0 83 38 151.5t103 108t144 39.5t133.5 -39t72.5 -108l29 143h67l-143 -718h-67l60 295q-38 -50 -93 -77.5t-118 -27.5q-66 0 -117.5 29.5zM401 84.5q51 31.5 80.5 85.5t29.5 118q0 80 -49 130t-128 50q-61 0 -112 -31.5
t-81 -85.5t-30 -118q0 -80 49.5 -130t129.5 -50q60 0 111 31.5z" />
    <glyph glyph-name="r" unicode="r" horiz-adv-x="368" 
d="M286 495.5q54 30.5 121 31.5l-8 -65q-82 1 -143.5 -48.5t-86.5 -133.5l-56 -280h-67l104 524h68l-24 -117q38 58 92 88.5z" />
    <glyph glyph-name="s" unicode="s" horiz-adv-x="464" 
d="M85 19.5q-61 26.5 -94 70.5l34 45q31 -38 82 -61.5t106 -23.5q53 0 87.5 25.5t34.5 66.5q0 34 -28 54.5t-84 43.5q-46 19 -74.5 35t-48.5 42t-20 65q0 67 50.5 107.5t129.5 40.5q55 0 104.5 -17.5t83.5 -46.5l-34 -48q-32 25 -73.5 40t-82.5 15q-49 0 -80.5 -23
t-31.5 -61q0 -33 27 -52.5t84 -42.5q47 -19 76.5 -35t50 -43t20.5 -67q0 -70 -54 -113t-137 -43q-67 0 -128 26.5z" />
    <glyph glyph-name="t" unicode="t" horiz-adv-x="386" 
d="M161 153q-4 -19 -4 -37q0 -30 13.5 -43.5t41.5 -13.5q45 2 93 30l14 -54q-60 -36 -121 -38q-51 0 -80 27t-29 79q0 18 5 45l62 309h-76l10 53h76l27 134h67l-27 -134h169l-10 -53h-170z" />
    <glyph glyph-name="u" unicode="u" horiz-adv-x="656" 
d="M114.5 38.5q-48.5 42.5 -48.5 118.5q0 27 6 55l62 312h68l-61 -305q-4 -20 -4 -42q0 -57 34.5 -88.5t98.5 -31.5q81 1 140 51.5t77 137.5l55 278h67l-103 -524h-68l22 110q-35 -55 -88.5 -84t-121.5 -30q-87 0 -135.5 42.5z" />
    <glyph glyph-name="v" unicode="v" horiz-adv-x="491" 
d="M546 524l-313 -524h-70l-105 524h71l81 -457l265 457h71z" />
    <glyph glyph-name="w" unicode="w" horiz-adv-x="856" 
d="M911 524l-300 -524h-71l-69 443l-251 -443h-70l-92 524h70l70 -457l250 457h72l68 -457l252 457h71z" />
    <glyph glyph-name="x" unicode="x" horiz-adv-x="522" 
d="M167 524l103 -207l190 207h76l-229 -254l136 -270h-77l-111 223l-207 -223h-78l248 270l-128 254h77z" />
    <glyph glyph-name="y" unicode="y" horiz-adv-x="494" 
d="M549 524l-362 -602q-35 -59 -80 -89t-94 -30q-61 0 -105 38l36 50q28 -23 69 -23q67 0 122 84l33 51l-113 521h70l89 -451l264 451h71z" />
    <glyph glyph-name="z" unicode="z" horiz-adv-x="524" 
d="M524 523l-9 -51l-421 -416h344l-11 -57l-425 1l9 51l421 416l-327 1l10 56z" />
    <glyph glyph-name="braceleft" unicode="{" horiz-adv-x="332" 
d="M199.5 337.5q-17.5 -22.5 -47.5 -29.5q21 -8 30.5 -21.5t9.5 -36.5q0 -18 -4 -37l-42 -207q-2 -14 -2 -20q0 -29 21 -42.5t67 -13.5l-11 -56h-24q-62 0 -91 19t-29 61q0 18 4 35l46 228q3 14 3 24q0 39 -40 39h-25l11 57h25q26 0 40.5 15t21.5 48l46 228q12 61 50 88
t112 27h24l-11 -56q-53 0 -81 -18t-36 -58l-42 -208q-8 -43 -25.5 -65.5z" />
    <glyph glyph-name="bar" unicode="|" horiz-adv-x="246" 
d="M261 817l-188 -940h-54l188 940h54z" />
    <glyph glyph-name="braceright" unicode="}" horiz-adv-x="396" 
d="M215.5 280.5q17.5 22.5 47.5 29.5q-21 8 -30.5 21.5t-9.5 36.5q0 18 4 37l42 207q2 14 2 20q0 29 -21 42.5t-67 13.5l11 56h24q62 0 91 -19t29 -61q0 -18 -4 -35l-46 -228q-3 -13 -3 -24q0 -39 40 -39h25l-11 -57h-25q-26 0 -40.5 -15t-21.5 -48l-46 -228
q-12 -61 -50 -88t-112 -27h-24l11 56q53 0 81 18t36 58l42 208q8 43 25.5 65.5z" />
    <glyph glyph-name="asciitilde" unicode="~" horiz-adv-x="490" 
d="M218.5 370q19.5 -9 44.5 -26q21 -15 35.5 -22t29.5 -7q21 0 37.5 14.5t21.5 40.5h50q-11 -53 -38 -81.5t-67 -28.5q-24 0 -43.5 9.5t-45.5 26.5q-18 13 -32.5 20.5t-28.5 7.5q-22 0 -36.5 -14.5t-19.5 -40.5h-50q22 110 101 110q22 0 41.5 -9z" />
    <glyph glyph-name="uni00A0" unicode="&#xa0;" horiz-adv-x="275" 
 />
    <glyph glyph-name="exclamdown" unicode="&#xa1;" horiz-adv-x="203" 
d="M120.5 450.5q-11.5 11.5 -11.5 30.5q0 20 14.5 35t34.5 15q18 0 29 -11.5t11 -30.5q0 -21 -14 -35.5t-34 -14.5q-18 0 -29.5 11.5zM-5 -164l33 168l72 314h46l-54 -314l-33 -168h-64z" />
    <glyph glyph-name="cent" unicode="&#xa2;" horiz-adv-x="581" 
d="M384 74.5q44 17.5 76 51.5l35 -40q-40 -42 -95 -65t-121 -23h-7l-27 -138h-54l29 144q-81 18 -128 80t-47 152q0 82 36.5 147t100 103.5t141.5 40.5l27 142h54l-28 -145q46 -6 83 -25t63 -48l-42 -46q-59 62 -151 62q-60 0 -110 -29t-78.5 -80.5t-28.5 -116.5
q0 -82 48.5 -133t127.5 -51q52 0 96 17.5z" />
    <glyph glyph-name="sterling" unicode="&#xa3;" horiz-adv-x="540" 
d="M510.5 677.5q43.5 -24.5 70.5 -70.5l-41 -51q-47 84 -131 84q-63 0 -105 -38.5t-56 -110.5l-25 -124h183l-8 -41h-183l-54 -268h298l-11 -58h-456l11 58h89l54 268h-89l8 41h90l25 126q19 100 80 154.5t153 54.5q54 0 97.5 -24.5z" />
    <glyph glyph-name="currency" unicode="&#xa4;" horiz-adv-x="829" 
d="M685 226q-17 -44 -48 -79l104 -105l-40 -41l-107 107q-75 -56 -169 -56q-93 0 -168 56l-108 -107l-39 41l105 106q-31 35 -47.5 78.5t-16.5 91.5q0 47 16.5 91t46.5 79l-104 105l39 41l107 -106q35 28 78.5 43t90.5 15t91 -15t80 -42l105 105l40 -41l-103 -104
q31 -36 47.5 -79.5t16.5 -91.5t-17 -92zM236.5 214q29.5 -48 79.5 -76t109 -28q60 0 110.5 28t80.5 76t30 104q0 57 -30 105t-80.5 76.5t-110.5 28.5q-59 0 -109 -28.5t-79.5 -76.5t-29.5 -105q0 -56 29.5 -104z" />
    <glyph glyph-name="yen" unicode="&#xa5;" horiz-adv-x="617" 
d="M704 700l-312 -412h178l-8 -41h-202l-12 -74h202l-8 -42h-201l-21 -131h-69l21 131h-201l8 42h200l12 74h-200l8 41h181l-181 412h71l171 -374l291 374h72z" />
    <glyph glyph-name="brokenbar" unicode="&#xa6;" horiz-adv-x="246" 
d="M261 817l-70 -349h-54l70 349h54zM143 227l-70 -350h-54l70 350h54z" />
    <glyph glyph-name="section" unicode="&#xa7;" horiz-adv-x="472" 
d="M72 -54.5q-59 25.5 -96 70.5l33 40q35 -41 83 -63t100 -22q57 0 93.5 25.5t36.5 65.5q0 34 -29 55t-88 46q-48 21 -75.5 37t-47.5 41.5t-20 60.5q0 60 44 95t122 39q-55 26 -80 52.5t-25 60.5q0 62 48.5 100.5t127.5 38.5q52 0 99.5 -16.5t86.5 -47.5l-32 -40
q-32 26 -73 40t-82 14q-52 0 -83.5 -23t-31.5 -61q0 -24 15.5 -41.5t38 -30t64.5 -30.5q46 -19 75 -35.5t49 -42t20 -60.5q0 -55 -42 -96.5t-103 -46.5q44 -22 64 -47t20 -57q0 -43 -24 -76t-66.5 -52t-96.5 -19q-66 0 -125 25.5zM350 238.5q32 25.5 32 66.5q0 40 -39.5 65
t-103.5 25q-52 0 -83.5 -22t-31.5 -59q0 -27 19.5 -50t52.5 -37t71 -14q51 0 83 25.5z" />
    <glyph glyph-name="dieresis" unicode="&#xa8;" horiz-adv-x="486" 
d="M277.5 708.5q9.5 -10.5 9.5 -26.5q0 -21 -16 -36.5t-36 -15.5q-16 0 -26 10.5t-10 26.5q0 21 16 36.5t37 15.5q16 0 25.5 -10.5zM441.5 708.5q9.5 -10.5 9.5 -26.5q0 -21 -16 -36.5t-36 -15.5q-16 0 -26 10.5t-10 26.5q0 21 16 36.5t37 15.5q16 0 25.5 -10.5z" />
    <glyph glyph-name="copyright" unicode="&#xa9;" horiz-adv-x="774" 
d="M575.5 643.5q77.5 -45.5 122.5 -123.5t45 -170q0 -91 -45 -169.5t-123 -125t-172 -46.5q-93 0 -170.5 46t-122 124t-44.5 169t45 169.5t122.5 125t171.5 46.5q93 0 170.5 -45.5zM253 608q-69 -41 -108.5 -110t-39.5 -150t39.5 -149.5t107.5 -109t151 -40.5q84 0 153 41
t109 110t40 150q0 82 -39.5 150.5t-108.5 108.5t-152 40t-152 -41zM479 512.5q34 -13.5 60 -37.5l-24 -28q-21 20 -48.5 31t-56.5 11q-39 0 -72 -18.5t-52.5 -50.5t-19.5 -70q0 -39 19.5 -71.5t52.5 -51.5t72 -19q28 0 56 11t49 31l24 -26q-26 -25 -60.5 -39t-70.5 -14
q-50 0 -91.5 24t-66 64.5t-24.5 89.5q0 48 24.5 89t66.5 64.5t93 23.5q35 0 69 -13.5z" />
    <glyph glyph-name="ordfeminine" unicode="&#xaa;" horiz-adv-x="380" 
d="M372 746.5q29 -22.5 29 -62.5q0 -15 -2 -23l-40 -203h-50l11 55q-47 -57 -125 -57q-43 0 -70 22t-27 57q0 5 2 17q17 80 132 81h111l5 23q2 12 2 17q0 27 -20 41t-58 14q-46 0 -111 -36l-8 37q76 40 136 40q54 0 83 -22.5zM328 556l10 48h-102q-43 0 -65.5 -17.5
t-22.5 -48.5q0 -21 16 -33.5t44 -12.5q77 0 120 64z" />
    <glyph glyph-name="guillemotleft" unicode="&#xab;" horiz-adv-x="419" 
d="M244 418l-142 -167l77 -161h-60l-80 163l145 165h60zM391 418l-142 -167l77 -161h-60l-80 163l145 165h60z" />
    <glyph glyph-name="logicalnot" unicode="&#xac;" horiz-adv-x="559" 
d="M487 382l-9 -49h-1l-35 -180h-53l36 180h-373l10 49h425z" />
    <glyph glyph-name="uni00AD" unicode="&#xad;" horiz-adv-x="363" 
d="M310 327l-10 -50h-231l10 50h231z" />
    <glyph glyph-name="registered" unicode="&#xae;" horiz-adv-x="774" 
d="M575.5 643.5q77.5 -45.5 122.5 -123.5t45 -170q0 -91 -45 -169.5t-123 -125t-172 -46.5q-93 0 -170.5 46t-122 124t-44.5 169t45 169.5t122.5 125t171.5 46.5q93 0 170.5 -45.5zM556 90q69 41 109 110t40 150q0 82 -39.5 150.5t-108.5 108.5t-152 40t-152 -41
t-108.5 -110t-39.5 -150t39.5 -149.5t107.5 -109t151 -40.5q84 0 153 41zM530 343q-21 -30 -61 -42l87 -122h-46l-76 115q-8 -1 -24 -1h-95v-114h-38v357h133q68 0 104.5 -31t36.5 -88q0 -44 -21 -74zM410 327q50 0 77 23t27 66q0 42 -27 64t-77 22h-95v-175h95z" />
    <glyph glyph-name="macron" unicode="&#xaf;" horiz-adv-x="495" 
d="M197 698h276l-9 -47h-276z" />
    <glyph glyph-name="degree" unicode="&#xb0;" horiz-adv-x="328" 
d="M337.5 787.5q26.5 -15.5 42.5 -41.5t16 -55q0 -45 -34 -78t-81 -33q-46 0 -80 33t-34 78t34 78.5t80 33.5q30 0 56.5 -15.5zM224.5 744.5q-23.5 -22.5 -23.5 -53.5t23.5 -53.5t56.5 -22.5t56.5 22.5t23.5 53.5t-23.5 53.5t-56.5 22.5t-56.5 -22.5z" />
    <glyph glyph-name="plusminus" unicode="&#xb1;" horiz-adv-x="553" 
d="M203 175l36 180h-182l9 49h183l37 181h48l-37 -181h183l-9 -49h-184l-36 -180h-48zM67 87h414l-10 -50h-414z" />
    <glyph glyph-name="uni00B2" unicode="&#xb2;" horiz-adv-x="392" 
d="M141 402h233l-8 -42h-293l5 40l192 167q75 66 75 109q0 26 -19 40t-54 14q-29 0 -61.5 -14t-63.5 -39l-19 39q36 29 76 43.5t78 14.5q53 0 84 -24.5t31 -66.5q0 -63 -98 -148z" />
    <glyph glyph-name="uni00B3" unicode="&#xb3;" horiz-adv-x="386" 
d="M402 738l-157 -140l21 -2q50 -3 78 -29t28 -66q0 -41 -23 -74.5t-62.5 -52.5t-87.5 -19q-37 0 -71.5 11t-60.5 31l27 38q45 -39 105 -39q53 0 88 29t35 74q0 31 -22.5 47t-64.5 16h-57l5 33l152 135h-183l7 40h248z" />
    <glyph glyph-name="acute" unicode="&#xb4;" horiz-adv-x="349" 
d="M272 748l69 -31l-126 -100l-60 7z" />
    <glyph glyph-name="uni00B5" unicode="&#xb5;" horiz-adv-x="677" 
d="M631 524l-104 -524h-68l22 111q-35 -56 -88.5 -85t-121.5 -30q-93 0 -142 49l-48 -239h-68l76 384l4 22l63 312h68l-63 -316q-2 -11 -2 -30q0 -57 35 -89t98 -32q81 2 140 52.5t76 137.5l55 277h68z" />
    <glyph glyph-name="paragraph" unicode="&#xb6;" horiz-adv-x="586" 
d="M402 -110h-54l161 806h-157l-161 -806h-53l100 498q-13 -1 -35 -1q-77 0 -110.5 38.5t-33.5 94.5q0 24 4 41q15 76 77.5 128.5t168.5 52.5h263z" />
    <glyph glyph-name="periodcentered" unicode="&#xb7;" horiz-adv-x="200" 
d="M207.5 313.5q10.5 -11.5 10.5 -28.5q0 -23 -17 -39.5t-40 -16.5q-16 0 -27 11.5t-11 28.5q0 23 17 39.5t40 16.5q17 0 27.5 -11.5z" />
    <glyph glyph-name="cedilla" unicode="&#xb8;" horiz-adv-x="372" 
d="M166 0l-27 -52q33 -4 50 -22t17 -43q0 -43 -35 -71t-87 -28q-22 0 -44 6t-38 16l25 46q12 -7 27.5 -11.5t30.5 -4.5q28 0 45.5 14.5t17.5 32.5q0 15 -12 24.5t-34 9.5h-30l44 90z" />
    <glyph glyph-name="uni00B9" unicode="&#xb9;" horiz-adv-x="270" 
d="M133 770h138l-82 -410h-52l74 366h-86z" />
    <glyph glyph-name="ordmasculine" unicode="&#xba;" horiz-adv-x="405" 
d="M395 730q41 -38 41 -100q0 -50 -23.5 -89.5t-64 -61.5t-90.5 -22q-67 0 -108 38t-41 100q0 50 23 89.5t63.5 61.5t91.5 22q67 0 108 -38zM195 690q-35 -36 -35 -92q0 -45 28 -72.5t73 -27.5q54 0 88.5 36t34.5 93q0 44 -27.5 71.5t-72.5 27.5q-54 0 -89 -36z" />
    <glyph glyph-name="guillemotright" unicode="&#xbb;" horiz-adv-x="425" 
d="M43 91l142 167l-77 161h60l80 -163l-145 -165h-60zM190 91l142 167l-77 161h60l80 -163l-145 -165h-60z" />
    <glyph glyph-name="onequarter" unicode="&#xbc;" horiz-adv-x="802" 
d="M119 700h138l-82 -410h-52l74 366h-86zM113 0h-52l527 700h52zM744 147l-8 -40h-64l-22 -107h-48l21 107h-204l7 40l205 263h52l-203 -263h151l23 114h48l-22 -114h64z" />
    <glyph glyph-name="onehalf" unicode="&#xbd;" horiz-adv-x="803" 
d="M119 700h138l-82 -410h-52l74 366h-86zM113 0h-52l527 700h52zM480 42h233l-8 -42h-293l5 40l192 167q75 66 75 109q0 26 -19 40t-54 14q-29 0 -61.5 -14t-63.5 -39l-19 39q36 29 76 43.5t78 14.5q53 0 84 -24.5t31 -66.5q0 -63 -98 -148z" />
    <glyph glyph-name="threequarters" unicode="&#xbe;" horiz-adv-x="918" 
d="M388 668l-157 -140l21 -2q50 -3 78 -29t28 -66q0 -41 -23 -74.5t-62.5 -52.5t-87.5 -19q-37 0 -71.5 11t-60.5 31l27 38q45 -39 105 -39q53 0 88 29t35 74q0 31 -22.5 47t-64.5 16h-57l5 33l152 135h-183l7 40h248zM229 0h-52l527 700h52zM860 147l-8 -40h-64l-22 -107
h-48l21 107h-204l7 40l205 263h52l-203 -263h151l23 114h48l-22 -114h64z" />
    <glyph glyph-name="questiondown" unicode="&#xbf;" horiz-adv-x="421" 
d="M185.5 450.5q-11.5 11.5 -11.5 30.5q0 20 14.5 35t34.5 15q18 0 29 -11.5t11 -30.5q0 -21 -14 -35.5t-34 -14.5q-18 0 -29.5 11.5zM296.5 -118.5q-54.5 -45.5 -139.5 -45.5q-80 0 -126.5 40t-46.5 110q0 38 14 69t34 54.5t54 55.5q44 44 65 73t24 68h54
q-4 -51 -28.5 -87.5t-68.5 -79.5q-42 -42 -63 -73.5t-21 -73.5q0 -47 30 -72t86 -25q61 0 97.5 29t46.5 84l55 -1q-12 -80 -66.5 -125.5z" />
    <glyph glyph-name="Agrave" unicode="&#xc0;" horiz-adv-x="712" 
d="M580 0l-52 186h-389l-113 -186h-73l430 700h72l199 -700h-74zM176 248h335l-106 379zM382 898l118 -124l-61 -7l-125 100z" />
    <glyph glyph-name="Aacute" unicode="&#xc1;" horiz-adv-x="712" 
d="M580 0l-52 186h-389l-113 -186h-73l430 700h72l199 -700h-74zM176 248h335l-106 379zM508 898l69 -31l-126 -100l-60 7z" />
    <glyph glyph-name="Acircumflex" unicode="&#xc2;" horiz-adv-x="712" 
d="M580 0l-52 186h-389l-113 -186h-73l430 700h72l199 -700h-74zM176 248h335l-106 379zM572 769h-69l-55 76l-86 -76h-69l127 125h74z" />
    <glyph glyph-name="Atilde" unicode="&#xc3;" horiz-adv-x="712" 
d="M580 0l-52 186h-389l-113 -186h-73l430 700h72l199 -700h-74zM176 248h335l-106 379zM564 795q-25 -30 -63 -30q-20 0 -35 8t-35 24q-16 13 -26 19t-22 6q-19 0 -31.5 -14.5t-17.5 -38.5h-48q9 47 33 77t62 30q21 0 36.5 -8.5t34.5 -24.5q18 -13 27 -18.5t20 -5.5
q20 0 33.5 14.5t17.5 38.5h49q-10 -47 -35 -77z" />
    <glyph glyph-name="Adieresis" unicode="&#xc4;" horiz-adv-x="712" 
d="M580 0l-52 186h-389l-113 -186h-73l430 700h72l199 -700h-74zM176 248h335l-106 379zM393.5 845.5q9.5 -10.5 9.5 -26.5q0 -21 -16 -36.5t-36 -15.5q-16 0 -26 10.5t-10 26.5q0 21 16 36.5t37 15.5q16 0 25.5 -10.5zM557.5 845.5q9.5 -10.5 9.5 -26.5q0 -21 -16 -36.5
t-36 -15.5q-16 0 -26 10.5t-10 26.5q0 21 16 36.5t37 15.5q16 0 25.5 -10.5z" />
    <glyph glyph-name="Aring" unicode="&#xc5;" horiz-adv-x="712" 
d="M580 0l-52 186h-389l-113 -186h-73l430 700h72l199 -700h-74zM176 248h335l-106 379zM521.5 925q25.5 -26 25.5 -63q0 -28 -16 -53.5t-42 -40.5t-55 -15q-38 0 -63.5 25.5t-25.5 61.5q0 29 16 54.5t42 41t55 15.5q38 0 63.5 -26zM406.5 890q-20.5 -20 -20.5 -45
q0 -22 15 -37t38 -15q27 0 48 19.5t21 45.5q0 21 -15.5 36.5t-39.5 15.5q-26 0 -46.5 -20z" />
    <glyph glyph-name="AE" unicode="&#xc6;" horiz-adv-x="1019" 
d="M1023 636h-399l-51 -249h357l-12 -63h-357l-53 -261h412l-12 -63h-481l40 198h-284l-155 -198h-75l554 700h528zM227 254h251l77 387h-24z" />
    <glyph glyph-name="Ccedilla" unicode="&#xc7;" horiz-adv-x="728" 
d="M296 599.5q-75 -43.5 -119.5 -117t-44.5 -160.5q0 -73 34.5 -133t95.5 -95t136 -35q59 0 116 22.5t103 62.5l38 -45q-56 -48 -125 -76t-138 -29l-24 -46q33 -4 50 -22t17 -43q0 -43 -35 -71t-87 -28q-22 0 -44 6t-38 16l25 46q12 -7 27.5 -11.5t30.5 -4.5q28 0 45.5 14.5
t17.5 32.5q0 15 -12 24.5t-34 9.5h-30l39 80q-81 11 -144 55.5t-98.5 114t-35.5 151.5q0 104 55 193t147 141.5t197 52.5q71 0 134.5 -26.5t109.5 -73.5l-46 -49q-39 42 -91 64.5t-111 22.5q-86 0 -161 -43.5z" />
    <glyph glyph-name="Egrave" unicode="&#xc8;" horiz-adv-x="650" 
d="M654 636h-400l-50 -249h357l-13 -63h-357l-52 -261h412l-12 -63h-481l140 700h468zM406 898l118 -124l-61 -7l-125 100z" />
    <glyph glyph-name="Eacute" unicode="&#xc9;" horiz-adv-x="650" 
d="M654 636h-400l-50 -249h357l-13 -63h-357l-52 -261h412l-12 -63h-481l140 700h468zM532 898l69 -31l-126 -100l-60 7z" />
    <glyph glyph-name="Ecircumflex" unicode="&#xca;" horiz-adv-x="650" 
d="M654 636h-400l-50 -249h357l-13 -63h-357l-52 -261h412l-12 -63h-481l140 700h468zM596 769h-69l-55 76l-86 -76h-69l127 125h74z" />
    <glyph glyph-name="Edieresis" unicode="&#xcb;" horiz-adv-x="650" 
d="M654 636h-400l-50 -249h357l-13 -63h-357l-52 -261h412l-12 -63h-481l140 700h468zM417.5 845.5q9.5 -10.5 9.5 -26.5q0 -21 -16 -36.5t-36 -15.5q-16 0 -26 10.5t-10 26.5q0 21 16 36.5t37 15.5q16 0 25.5 -10.5zM581.5 845.5q9.5 -10.5 9.5 -26.5q0 -21 -16 -36.5
t-36 -15.5q-16 0 -26 10.5t-10 26.5q0 21 16 36.5t37 15.5q16 0 25.5 -10.5z" />
    <glyph glyph-name="Igrave" unicode="&#xcc;" horiz-adv-x="289" 
d="M266 700l-140 -700h-69l140 700h69zM195 898l118 -124l-61 -7l-125 100z" />
    <glyph glyph-name="Iacute" unicode="&#xcd;" horiz-adv-x="289" 
d="M266 700l-140 -700h-69l140 700h69zM321 898l69 -31l-126 -100l-60 7z" />
    <glyph glyph-name="Icircumflex" unicode="&#xce;" horiz-adv-x="289" 
d="M266 700l-140 -700h-69l140 700h69zM385 769h-69l-55 76l-86 -76h-69l127 125h74z" />
    <glyph glyph-name="Idieresis" unicode="&#xcf;" horiz-adv-x="289" 
d="M266 700l-140 -700h-69l140 700h69zM206.5 845.5q9.5 -10.5 9.5 -26.5q0 -21 -16 -36.5t-36 -15.5q-16 0 -26 10.5t-10 26.5q0 21 16 36.5t37 15.5q16 0 25.5 -10.5zM370.5 845.5q9.5 -10.5 9.5 -26.5q0 -21 -16 -36.5t-36 -15.5q-16 0 -26 10.5t-10 26.5q0 21 16 36.5
t37 15.5q16 0 25.5 -10.5z" />
    <glyph glyph-name="Eth" unicode="&#xd0;" horiz-adv-x="795" 
d="M623.5 661.5q70.5 -38.5 110 -106t39.5 -152.5q0 -11 -2 -37q-10 -101 -69 -185t-151 -132.5t-196 -48.5h-296l65 328h-75l8 44h76l65 328h264q91 0 161.5 -38.5zM703 394q0 69 -32.5 124t-89.5 86.5t-129 31.5h-197l-53 -264h219l-9 -44h-219l-53 -265h227
q82 0 155.5 39.5t121.5 108t57 151.5q2 22 2 32z" />
    <glyph glyph-name="Ntilde" unicode="&#xd1;" horiz-adv-x="796" 
d="M705 700h68l-140 -700h-73l-314 592l-119 -592h-69l140 700h73l314 -593zM631 795q-25 -30 -63 -30q-20 0 -35 8t-35 24q-16 13 -26 19t-22 6q-19 0 -31.5 -14.5t-17.5 -38.5h-48q9 47 33 77t62 30q21 0 36.5 -8.5t34.5 -24.5q18 -13 27 -18.5t20 -5.5q20 0 33.5 14.5
t17.5 38.5h49q-10 -47 -35 -77z" />
    <glyph glyph-name="Ograve" unicode="&#xd2;" horiz-adv-x="819" 
d="M637.5 660q77.5 -45 119.5 -122.5t37 -171.5q-4 -101 -60.5 -186.5t-147 -135.5t-193.5 -50q-94 0 -169.5 43t-118.5 117t-43 164q0 105 55 194t147.5 141t198.5 52q97 0 174.5 -45zM298 598.5q-75 -43.5 -120.5 -117t-45.5 -159.5q0 -73 35 -134t96.5 -96t135.5 -35
q84 0 159 44t120 118t45 160q0 73 -35 133t-95.5 95t-134.5 35q-85 0 -160 -43.5zM425 898l118 -124l-61 -7l-125 100z" />
    <glyph glyph-name="Oacute" unicode="&#xd3;" horiz-adv-x="819" 
d="M637.5 660q77.5 -45 119.5 -122.5t37 -171.5q-4 -101 -60.5 -186.5t-147 -135.5t-193.5 -50q-94 0 -169.5 43t-118.5 117t-43 164q0 105 55 194t147.5 141t198.5 52q97 0 174.5 -45zM298 598.5q-75 -43.5 -120.5 -117t-45.5 -159.5q0 -73 35 -134t96.5 -96t135.5 -35
q84 0 159 44t120 118t45 160q0 73 -35 133t-95.5 95t-134.5 35q-85 0 -160 -43.5zM551 898l69 -31l-126 -100l-60 7z" />
    <glyph glyph-name="Ocircumflex" unicode="&#xd4;" horiz-adv-x="819" 
d="M637.5 660q77.5 -45 119.5 -122.5t37 -171.5q-4 -101 -60.5 -186.5t-147 -135.5t-193.5 -50q-94 0 -169.5 43t-118.5 117t-43 164q0 105 55 194t147.5 141t198.5 52q97 0 174.5 -45zM298 598.5q-75 -43.5 -120.5 -117t-45.5 -159.5q0 -73 35 -134t96.5 -96t135.5 -35
q84 0 159 44t120 118t45 160q0 73 -35 133t-95.5 95t-134.5 35q-85 0 -160 -43.5zM615 769h-69l-55 76l-86 -76h-69l127 125h74z" />
    <glyph glyph-name="Otilde" unicode="&#xd5;" horiz-adv-x="819" 
d="M637.5 660q77.5 -45 119.5 -122.5t37 -171.5q-4 -101 -60.5 -186.5t-147 -135.5t-193.5 -50q-94 0 -169.5 43t-118.5 117t-43 164q0 105 55 194t147.5 141t198.5 52q97 0 174.5 -45zM298 598.5q-75 -43.5 -120.5 -117t-45.5 -159.5q0 -73 35 -134t96.5 -96t135.5 -35
q84 0 159 44t120 118t45 160q0 73 -35 133t-95.5 95t-134.5 35q-85 0 -160 -43.5zM607 795q-25 -30 -63 -30q-20 0 -35 8t-35 24q-16 13 -26 19t-22 6q-19 0 -31.5 -14.5t-17.5 -38.5h-48q9 47 33 77t62 30q21 0 36.5 -8.5t34.5 -24.5q18 -13 27 -18.5t20 -5.5
q20 0 33.5 14.5t17.5 38.5h49q-10 -47 -35 -77z" />
    <glyph glyph-name="Odieresis" unicode="&#xd6;" horiz-adv-x="819" 
d="M637.5 660q77.5 -45 119.5 -122.5t37 -171.5q-4 -101 -60.5 -186.5t-147 -135.5t-193.5 -50q-94 0 -169.5 43t-118.5 117t-43 164q0 105 55 194t147.5 141t198.5 52q97 0 174.5 -45zM298 598.5q-75 -43.5 -120.5 -117t-45.5 -159.5q0 -73 35 -134t96.5 -96t135.5 -35
q84 0 159 44t120 118t45 160q0 73 -35 133t-95.5 95t-134.5 35q-85 0 -160 -43.5zM436.5 845.5q9.5 -10.5 9.5 -26.5q0 -21 -16 -36.5t-36 -15.5q-16 0 -26 10.5t-10 26.5q0 21 16 36.5t37 15.5q16 0 25.5 -10.5zM600.5 845.5q9.5 -10.5 9.5 -26.5q0 -21 -16 -36.5
t-36 -15.5q-16 0 -26 10.5t-10 26.5q0 21 16 36.5t37 15.5q16 0 25.5 -10.5z" />
    <glyph glyph-name="multiply" unicode="&#xd7;" horiz-adv-x="541" 
d="M445 451l-129 -129l129 -129l-33 -34l-129 130l-130 -130l-33 34l129 129l-129 129l33 35l130 -130l129 130z" />
    <glyph glyph-name="Oslash" unicode="&#xd8;" horiz-adv-x="819" 
d="M760.5 530q33.5 -67 33.5 -146q0 -105 -55 -194.5t-147.5 -142.5t-198.5 -53q-95 0 -173 45l-69 -94h-61l90 121q-56 45 -87 110t-31 142q0 105 55 194t147.5 141t198.5 52q87 0 161 -38l65 88h62l-84 -114q60 -44 93.5 -111zM155.5 211q23.5 -51 65.5 -89l362 490
q-58 30 -125 30q-85 0 -160 -43.5t-120.5 -117t-45.5 -159.5q0 -60 23.5 -111zM697 495q-26 54 -72 90l-364 -492q63 -36 138 -36q84 0 159 44t120 117.5t45 159.5q0 63 -26 117z" />
    <glyph glyph-name="Ugrave" unicode="&#xd9;" horiz-adv-x="769" 
d="M681 287q-28 -138 -115.5 -214t-223.5 -76q-118 0 -184 57.5t-66 161.5q0 36 7 71l83 413h68l-82 -413q-6 -31 -6 -59q0 -80 49.5 -124t138.5 -44q103 0 171 59.5t91 167.5l82 413h69zM435 898l118 -124l-61 -7l-125 100z" />
    <glyph glyph-name="Uacute" unicode="&#xda;" horiz-adv-x="769" 
d="M681 287q-28 -138 -115.5 -214t-223.5 -76q-118 0 -184 57.5t-66 161.5q0 36 7 71l83 413h68l-82 -413q-6 -31 -6 -59q0 -80 49.5 -124t138.5 -44q103 0 171 59.5t91 167.5l82 413h69zM561 898l69 -31l-126 -100l-60 7z" />
    <glyph glyph-name="Ucircumflex" unicode="&#xdb;" horiz-adv-x="769" 
d="M681 287q-28 -138 -115.5 -214t-223.5 -76q-118 0 -184 57.5t-66 161.5q0 36 7 71l83 413h68l-82 -413q-6 -31 -6 -59q0 -80 49.5 -124t138.5 -44q103 0 171 59.5t91 167.5l82 413h69zM625 769h-69l-55 76l-86 -76h-69l127 125h74z" />
    <glyph glyph-name="Udieresis" unicode="&#xdc;" horiz-adv-x="769" 
d="M681 287q-28 -138 -115.5 -214t-223.5 -76q-118 0 -184 57.5t-66 161.5q0 36 7 71l83 413h68l-82 -413q-6 -31 -6 -59q0 -80 49.5 -124t138.5 -44q103 0 171 59.5t91 167.5l82 413h69zM446.5 845.5q9.5 -10.5 9.5 -26.5q0 -21 -16 -36.5t-36 -15.5q-16 0 -26 10.5
t-10 26.5q0 21 16 36.5t37 15.5q16 0 25.5 -10.5zM610.5 845.5q9.5 -10.5 9.5 -26.5q0 -21 -16 -36.5t-36 -15.5q-16 0 -26 10.5t-10 26.5q0 21 16 36.5t37 15.5q16 0 25.5 -10.5z" />
    <glyph glyph-name="Yacute" unicode="&#xdd;" horiz-adv-x="622" 
d="M704 700l-343 -449l-41 -251h-69l41 250l-199 450h72l172 -378l295 378h72zM488 898l69 -31l-126 -100l-60 7z" />
    <glyph glyph-name="Thorn" unicode="&#xde;" horiz-adv-x="684" 
d="M604 547.5q65 -46.5 65 -136.5q0 -132 -89.5 -205.5t-259.5 -73.5h-167l-26 -132h-69l140 700h69l-21 -106h166q127 0 192 -46.5zM529.5 245q67.5 54 67.5 154q0 137 -198 137h-165l-69 -345h164q133 0 200.5 54z" />
    <glyph glyph-name="germandbls" unicode="&#xdf;" horiz-adv-x="649" 
d="M559.5 702.5q51.5 -42.5 51.5 -111.5q0 -75 -47 -133.5t-124 -78.5q65 -10 102 -49t37 -96q0 -68 -38 -121t-105 -83t-151 -30h-53l10 54h57q56 0 102.5 20.5t75.5 56.5t34 82q1 6 1 16q0 55 -45 85.5t-125 30.5h-9l9 54q58 0 104 23t72 64.5t26 94.5q0 50 -33.5 78.5
t-92.5 28.5q-78 0 -135 -52.5t-75 -140.5l-99 -495h-67l98 492q24 118 99.5 185.5t183.5 67.5q85 0 136.5 -42.5z" />
    <glyph glyph-name="agrave" unicode="&#xe0;" horiz-adv-x="676" 
d="M151.5 25.5q-51.5 29.5 -80 82.5t-28.5 121q0 83 38 151.5t103 108t144 39.5t133.5 -39t72.5 -108l29 143h67l-104 -524h-67l21 101q-38 -50 -93 -77.5t-118 -27.5q-66 0 -117.5 29.5zM401 84.5q51 31.5 80.5 85.5t29.5 118q0 80 -49 130t-128 50q-61 0 -112 -31.5
t-81 -85.5t-30 -118q0 -80 49.5 -130t129.5 -50q60 0 111 31.5zM339 748l118 -124l-61 -7l-125 100z" />
    <glyph glyph-name="aacute" unicode="&#xe1;" horiz-adv-x="676" 
d="M151.5 25.5q-51.5 29.5 -80 82.5t-28.5 121q0 83 38 151.5t103 108t144 39.5t133.5 -39t72.5 -108l29 143h67l-104 -524h-67l21 101q-38 -50 -93 -77.5t-118 -27.5q-66 0 -117.5 29.5zM401 84.5q51 31.5 80.5 85.5t29.5 118q0 80 -49 130t-128 50q-61 0 -112 -31.5
t-81 -85.5t-30 -118q0 -80 49.5 -130t129.5 -50q60 0 111 31.5zM465 748l69 -31l-126 -100l-60 7z" />
    <glyph glyph-name="acircumflex" unicode="&#xe2;" horiz-adv-x="676" 
d="M151.5 25.5q-51.5 29.5 -80 82.5t-28.5 121q0 83 38 151.5t103 108t144 39.5t133.5 -39t72.5 -108l29 143h67l-104 -524h-67l21 101q-38 -50 -93 -77.5t-118 -27.5q-66 0 -117.5 29.5zM401 84.5q51 31.5 80.5 85.5t29.5 118q0 80 -49 130t-128 50q-61 0 -112 -31.5
t-81 -85.5t-30 -118q0 -80 49.5 -130t129.5 -50q60 0 111 31.5zM529 619h-69l-55 76l-86 -76h-69l127 125h74z" />
    <glyph glyph-name="atilde" unicode="&#xe3;" horiz-adv-x="676" 
d="M151.5 25.5q-51.5 29.5 -80 82.5t-28.5 121q0 83 38 151.5t103 108t144 39.5t133.5 -39t72.5 -108l29 143h67l-104 -524h-67l21 101q-38 -50 -93 -77.5t-118 -27.5q-66 0 -117.5 29.5zM401 84.5q51 31.5 80.5 85.5t29.5 118q0 80 -49 130t-128 50q-61 0 -112 -31.5
t-81 -85.5t-30 -118q0 -80 49.5 -130t129.5 -50q60 0 111 31.5zM522 646q-25 -30 -63 -30q-20 0 -35 8t-35 24q-16 13 -26 19t-22 6q-19 0 -31.5 -14.5t-17.5 -38.5h-48q9 47 33 77t62 30q21 0 36.5 -8.5t34.5 -24.5q18 -13 27 -18.5t20 -5.5q20 0 33.5 14.5t17.5 38.5h49
q-10 -47 -35 -77z" />
    <glyph glyph-name="adieresis" unicode="&#xe4;" horiz-adv-x="676" 
d="M151.5 25.5q-51.5 29.5 -80 82.5t-28.5 121q0 83 38 151.5t103 108t144 39.5t133.5 -39t72.5 -108l29 143h67l-104 -524h-67l21 101q-38 -50 -93 -77.5t-118 -27.5q-66 0 -117.5 29.5zM401 84.5q51 31.5 80.5 85.5t29.5 118q0 80 -49 130t-128 50q-61 0 -112 -31.5
t-81 -85.5t-30 -118q0 -80 49.5 -130t129.5 -50q60 0 111 31.5zM353.5 708.5q9.5 -10.5 9.5 -26.5q0 -21 -16 -36.5t-36 -15.5q-16 0 -26 10.5t-10 26.5q0 21 16 36.5t37 15.5q16 0 25.5 -10.5zM517.5 708.5q9.5 -10.5 9.5 -26.5q0 -21 -16 -36.5t-36 -15.5q-16 0 -26 10.5
t-10 26.5q0 21 16 36.5t37 15.5q16 0 25.5 -10.5z" />
    <glyph glyph-name="aring" unicode="&#xe5;" horiz-adv-x="676" 
d="M151.5 25.5q-51.5 29.5 -80 82.5t-28.5 121q0 83 38 151.5t103 108t144 39.5t133.5 -39t72.5 -108l29 143h67l-104 -524h-67l21 101q-38 -50 -93 -77.5t-118 -27.5q-66 0 -117.5 29.5zM401 84.5q51 31.5 80.5 85.5t29.5 118q0 80 -49 130t-128 50q-61 0 -112 -31.5
t-81 -85.5t-30 -118q0 -80 49.5 -130t129.5 -50q60 0 111 31.5zM473.5 749q25.5 -26 25.5 -63q0 -28 -16 -53.5t-42 -40.5t-55 -15q-38 0 -63.5 25.5t-25.5 61.5q0 29 16 54.5t42 41t55 15.5q38 0 63.5 -26zM358.5 714q-20.5 -20 -20.5 -45q0 -22 15 -37t38 -15
q27 0 48 19.5t21 45.5q0 21 -15.5 36.5t-39.5 15.5q-26 0 -46.5 -20z" />
    <glyph glyph-name="ae" unicode="&#xe6;" horiz-adv-x="967" 
d="M72.5 36q-45.5 39 -45.5 103q0 72 55.5 113t154.5 41h178l4 49l1 15q0 55 -34.5 84t-100.5 29q-86 0 -185 -63l-18 50q115 70 216 70q74 0 119.5 -30.5t56.5 -86.5q37 56 94.5 86.5t126.5 30.5q70 0 122.5 -30t81 -84.5t28.5 -125.5q0 -11 -2 -37h-445l-2 -22
q-4 -46 19.5 -86t67 -64t94.5 -24q50 0 94.5 18t79.5 51l36 -40q-43 -42 -97.5 -63.5t-117.5 -21.5q-79 0 -138 39t-83 104q-76 -144 -239 -144q-76 0 -121.5 39zM861 292q3 83 -42.5 133t-123.5 50q-79 0 -138 -51t-74 -132h378zM323 79q48 31 82 98l7 75h-166
q-73 1 -114 -28t-41 -81q0 -43 31.5 -69t84.5 -26q68 0 116 31z" />
    <glyph glyph-name="ccedilla" unicode="&#xe7;" horiz-adv-x="581" 
d="M384 74.5q44 17.5 76 51.5l35 -40q-39 -41 -93 -64t-117 -24l-26 -50q33 -4 50 -22t17 -43q0 -43 -35 -71t-87 -28q-22 0 -44 6t-38 16l25 46q12 -7 27.5 -11.5t30.5 -4.5q28 0 45.5 14.5t17.5 32.5q0 15 -12 24.5t-34 9.5h-30l41 85q-86 14 -137 77t-51 157
q0 83 38 149.5t103.5 104t145.5 37.5q60 0 109 -20t81 -56l-42 -46q-59 62 -151 62q-60 0 -110 -29t-78.5 -80.5t-28.5 -116.5q0 -82 48.5 -133t127.5 -51q52 0 96 17.5z" />
    <glyph glyph-name="egrave" unicode="&#xe8;" horiz-adv-x="599" 
d="M111 239v-3q0 -83 49.5 -133t132.5 -50q48 0 91 16t76 46l32 -44q-39 -36 -91 -55t-111 -19q-73 0 -128.5 30t-86 84t-30.5 125q0 82 38 148.5t104.5 104.5t146.5 38q104 0 164.5 -62t60.5 -166q0 -25 -5 -60h-443zM193.5 421q-59.5 -49 -76.5 -129h382q1 83 -42.5 130.5
t-122.5 47.5q-81 0 -140.5 -49zM294 751l118 -124l-61 -7l-125 100z" />
    <glyph glyph-name="eacute" unicode="&#xe9;" horiz-adv-x="599" 
d="M111 239v-3q0 -83 49.5 -133t132.5 -50q48 0 91 16t76 46l32 -44q-39 -36 -91 -55t-111 -19q-73 0 -128.5 30t-86 84t-30.5 125q0 82 38 148.5t104.5 104.5t146.5 38q104 0 164.5 -62t60.5 -166q0 -25 -5 -60h-443zM193.5 421q-59.5 -49 -76.5 -129h382q1 83 -42.5 130.5
t-122.5 47.5q-81 0 -140.5 -49zM420 751l69 -31l-126 -100l-60 7z" />
    <glyph glyph-name="ecircumflex" unicode="&#xea;" horiz-adv-x="599" 
d="M111 239v-3q0 -83 49.5 -133t132.5 -50q48 0 91 16t76 46l32 -44q-39 -36 -91 -55t-111 -19q-73 0 -128.5 30t-86 84t-30.5 125q0 82 38 148.5t104.5 104.5t146.5 38q104 0 164.5 -62t60.5 -166q0 -25 -5 -60h-443zM193.5 421q-59.5 -49 -76.5 -129h382q1 83 -42.5 130.5
t-122.5 47.5q-81 0 -140.5 -49zM484 622h-69l-55 76l-86 -76h-69l127 125h74z" />
    <glyph glyph-name="edieresis" unicode="&#xeb;" horiz-adv-x="599" 
d="M111 239v-3q0 -83 49.5 -133t132.5 -50q48 0 91 16t76 46l32 -44q-39 -36 -91 -55t-111 -19q-73 0 -128.5 30t-86 84t-30.5 125q0 82 38 148.5t104.5 104.5t146.5 38q104 0 164.5 -62t60.5 -166q0 -25 -5 -60h-443zM193.5 421q-59.5 -49 -76.5 -129h382q1 83 -42.5 130.5
t-122.5 47.5q-81 0 -140.5 -49zM308.5 711.5q9.5 -10.5 9.5 -26.5q0 -21 -16 -36.5t-36 -15.5q-16 0 -26 10.5t-10 26.5q0 21 16 36.5t37 15.5q16 0 25.5 -10.5zM472.5 711.5q9.5 -10.5 9.5 -26.5q0 -21 -16 -36.5t-36 -15.5q-16 0 -26 10.5t-10 26.5q0 21 16 36.5t37 15.5
q16 0 25.5 -10.5z" />
    <glyph glyph-name="igrave" unicode="&#xec;" horiz-adv-x="263" 
d="M217 524l-104 -524h-67l104 524h67zM152 748l118 -124l-61 -7l-125 100z" />
    <glyph glyph-name="iacute" unicode="&#xed;" horiz-adv-x="263" 
d="M217 524l-104 -524h-67l104 524h67zM278 748l69 -31l-126 -100l-60 7z" />
    <glyph glyph-name="icircumflex" unicode="&#xee;" horiz-adv-x="263" 
d="M217 524l-104 -524h-67l104 524h67zM342 619h-69l-55 76l-86 -76h-69l127 125h74z" />
    <glyph glyph-name="idieresis" unicode="&#xef;" horiz-adv-x="263" 
d="M217 524l-104 -524h-67l104 524h67zM180.5 708.5q9.5 -10.5 9.5 -26.5q0 -21 -16 -36.5t-36 -15.5q-16 0 -26 10.5t-10 26.5q0 21 16 36.5t37 15.5q16 0 25.5 -10.5zM314.5 708.5q9.5 -10.5 9.5 -26.5q0 -21 -16 -36.5t-36 -15.5q-16 0 -26 10.5t-10 26.5q0 21 16 36.5
t37 15.5q16 0 25.5 -10.5z" />
    <glyph glyph-name="eth" unicode="&#xf0;" horiz-adv-x="582" 
d="M412 609q61 -71 93.5 -153t32.5 -165q0 -89 -33.5 -155t-95.5 -102t-145 -36q-102 0 -162.5 54t-60.5 145q0 71 31 126.5t87 86.5t128 31q67 0 119 -29.5t72 -78.5q-9 64 -41 129t-82 123l-187 -79l-15 38l172 73q-58 56 -124 96l47 33q76 -46 134 -105l149 63l16 -38z
M368.5 82.5q44.5 23.5 69 66t24.5 96.5q0 66 -43.5 105t-119.5 39q-56 0 -99.5 -24t-68 -66.5t-24.5 -96.5q0 -66 43 -104.5t117 -38.5q57 0 101.5 23.5z" />
    <glyph glyph-name="ntilde" unicode="&#xf1;" horiz-adv-x="656" 
d="M541.5 485.5q48.5 -42.5 48.5 -118.5q0 -26 -6 -55l-62 -312h-68l61 305q4 20 4 42q0 57 -34.5 88.5t-98.5 31.5q-81 -1 -140 -51.5t-77 -137.5l-55 -278h-67l103 524h68l-22 -110q35 55 88.5 84t121.5 30q87 0 135.5 -42.5zM535 646q-25 -30 -63 -30q-20 0 -35 8t-35 24
q-16 13 -26 19t-22 6q-19 0 -31.5 -14.5t-17.5 -38.5h-48q9 47 33 77t62 30q21 0 36.5 -8.5t34.5 -24.5q18 -13 27 -18.5t20 -5.5q20 0 33.5 14.5t17.5 38.5h49q-10 -47 -35 -77z" />
    <glyph glyph-name="ograve" unicode="&#xf2;" horiz-adv-x="621" 
d="M462.5 496.5q54.5 -30.5 84.5 -84.5t30 -124q0 -83 -38.5 -149t-105.5 -103.5t-149 -37.5q-71 0 -125 30.5t-84 84.5t-30 124q0 83 38.5 149t105 103.5t148.5 37.5q71 0 125.5 -30.5zM220 438.5q-50 -29.5 -78.5 -81.5t-28.5 -117q0 -82 48.5 -133t128.5 -51q61 0 111 29
t78.5 81t28.5 118q0 82 -48.5 133t-128.5 51q-61 0 -111 -29.5zM305 748l118 -124l-61 -7l-125 100z" />
    <glyph glyph-name="oacute" unicode="&#xf3;" horiz-adv-x="621" 
d="M462.5 496.5q54.5 -30.5 84.5 -84.5t30 -124q0 -83 -38.5 -149t-105.5 -103.5t-149 -37.5q-71 0 -125 30.5t-84 84.5t-30 124q0 83 38.5 149t105 103.5t148.5 37.5q71 0 125.5 -30.5zM220 438.5q-50 -29.5 -78.5 -81.5t-28.5 -117q0 -82 48.5 -133t128.5 -51q61 0 111 29
t78.5 81t28.5 118q0 82 -48.5 133t-128.5 51q-61 0 -111 -29.5zM431 748l69 -31l-126 -100l-60 7z" />
    <glyph glyph-name="ocircumflex" unicode="&#xf4;" horiz-adv-x="621" 
d="M462.5 496.5q54.5 -30.5 84.5 -84.5t30 -124q0 -83 -38.5 -149t-105.5 -103.5t-149 -37.5q-71 0 -125 30.5t-84 84.5t-30 124q0 83 38.5 149t105 103.5t148.5 37.5q71 0 125.5 -30.5zM220 438.5q-50 -29.5 -78.5 -81.5t-28.5 -117q0 -82 48.5 -133t128.5 -51q61 0 111 29
t78.5 81t28.5 118q0 82 -48.5 133t-128.5 51q-61 0 -111 -29.5zM495 619h-69l-55 76l-86 -76h-69l127 125h74z" />
    <glyph glyph-name="otilde" unicode="&#xf5;" horiz-adv-x="621" 
d="M462.5 496.5q54.5 -30.5 84.5 -84.5t30 -124q0 -83 -38.5 -149t-105.5 -103.5t-149 -37.5q-71 0 -125 30.5t-84 84.5t-30 124q0 83 38.5 149t105 103.5t148.5 37.5q71 0 125.5 -30.5zM220 438.5q-50 -29.5 -78.5 -81.5t-28.5 -117q0 -82 48.5 -133t128.5 -51q61 0 111 29
t78.5 81t28.5 118q0 82 -48.5 133t-128.5 51q-61 0 -111 -29.5zM488 646q-25 -30 -63 -30q-20 0 -35 8t-35 24q-16 13 -26 19t-22 6q-19 0 -31.5 -14.5t-17.5 -38.5h-48q9 47 33 77t62 30q21 0 36.5 -8.5t34.5 -24.5q18 -13 27 -18.5t20 -5.5q20 0 33.5 14.5t17.5 38.5h49
q-10 -47 -35 -77z" />
    <glyph glyph-name="odieresis" unicode="&#xf6;" horiz-adv-x="621" 
d="M462.5 496.5q54.5 -30.5 84.5 -84.5t30 -124q0 -83 -38.5 -149t-105.5 -103.5t-149 -37.5q-71 0 -125 30.5t-84 84.5t-30 124q0 83 38.5 149t105 103.5t148.5 37.5q71 0 125.5 -30.5zM220 438.5q-50 -29.5 -78.5 -81.5t-28.5 -117q0 -82 48.5 -133t128.5 -51q61 0 111 29
t78.5 81t28.5 118q0 82 -48.5 133t-128.5 51q-61 0 -111 -29.5zM319.5 708.5q9.5 -10.5 9.5 -26.5q0 -21 -16 -36.5t-36 -15.5q-16 0 -26 10.5t-10 26.5q0 21 16 36.5t37 15.5q16 0 25.5 -10.5zM483.5 708.5q9.5 -10.5 9.5 -26.5q0 -21 -16 -36.5t-36 -15.5q-16 0 -26 10.5
t-10 26.5q0 21 16 36.5t37 15.5q16 0 25.5 -10.5z" />
    <glyph glyph-name="divide" unicode="&#xf7;" horiz-adv-x="489" 
d="M322 537q10 -11 10 -28q0 -22 -16 -37.5t-38 -15.5q-16 0 -26 11t-10 27q0 22 16.5 38t37.5 16q16 0 26 -11zM468 347l-9 -50h-414l9 50h414zM252 184q10 -11 10 -28q0 -22 -16 -37.5t-38 -15.5q-16 0 -26 11t-10 27q0 22 16.5 38t37.5 16q16 0 26 -11z" />
    <glyph glyph-name="oslash" unicode="&#xf8;" horiz-adv-x="621" 
d="M553.5 399.5q23.5 -49.5 23.5 -111.5q0 -83 -38.5 -149t-105.5 -103.5t-149 -37.5q-65 0 -117 26l-89 -127h-52l105 150q-41 32 -63.5 81t-22.5 109q0 83 38.5 149t105 103.5t148.5 37.5q62 0 114 -25l88 125h51l-103 -146q43 -32 66.5 -81.5zM124 159q15 -37 42 -63
l250 356q-38 19 -84 19q-62 0 -113 -29.5t-80.5 -82.5t-29.5 -119q0 -44 15 -81zM402 81.5q51 29.5 80.5 82.5t29.5 120q0 46 -16 83t-45 62l-250 -357q38 -20 88 -20q62 0 113 29.5z" />
    <glyph glyph-name="ugrave" unicode="&#xf9;" horiz-adv-x="656" 
d="M114.5 38.5q-48.5 42.5 -48.5 118.5q0 27 6 55l62 312h68l-61 -305q-4 -20 -4 -42q0 -57 34.5 -88.5t98.5 -31.5q81 1 140 51.5t77 137.5l55 278h67l-103 -524h-68l22 110q-35 -55 -88.5 -84t-121.5 -30q-87 0 -135.5 42.5zM348 748l118 -124l-61 -7l-125 100z" />
    <glyph glyph-name="uacute" unicode="&#xfa;" horiz-adv-x="656" 
d="M114.5 38.5q-48.5 42.5 -48.5 118.5q0 27 6 55l62 312h68l-61 -305q-4 -20 -4 -42q0 -57 34.5 -88.5t98.5 -31.5q81 1 140 51.5t77 137.5l55 278h67l-103 -524h-68l22 110q-35 -55 -88.5 -84t-121.5 -30q-87 0 -135.5 42.5zM474 748l69 -31l-126 -100l-60 7z" />
    <glyph glyph-name="ucircumflex" unicode="&#xfb;" horiz-adv-x="656" 
d="M114.5 38.5q-48.5 42.5 -48.5 118.5q0 27 6 55l62 312h68l-61 -305q-4 -20 -4 -42q0 -57 34.5 -88.5t98.5 -31.5q81 1 140 51.5t77 137.5l55 278h67l-103 -524h-68l22 110q-35 -55 -88.5 -84t-121.5 -30q-87 0 -135.5 42.5zM538 619h-69l-55 76l-86 -76h-69l127 125h74z
" />
    <glyph glyph-name="udieresis" unicode="&#xfc;" horiz-adv-x="656" 
d="M114.5 38.5q-48.5 42.5 -48.5 118.5q0 27 6 55l62 312h68l-61 -305q-4 -20 -4 -42q0 -57 34.5 -88.5t98.5 -31.5q81 1 140 51.5t77 137.5l55 278h67l-103 -524h-68l22 110q-35 -55 -88.5 -84t-121.5 -30q-87 0 -135.5 42.5zM362.5 708.5q9.5 -10.5 9.5 -26.5
q0 -21 -16 -36.5t-36 -15.5q-16 0 -26 10.5t-10 26.5q0 21 16 36.5t37 15.5q16 0 25.5 -10.5zM526.5 708.5q9.5 -10.5 9.5 -26.5q0 -21 -16 -36.5t-36 -15.5q-16 0 -26 10.5t-10 26.5q0 21 16 36.5t37 15.5q16 0 25.5 -10.5z" />
    <glyph glyph-name="yacute" unicode="&#xfd;" horiz-adv-x="494" 
d="M549 524l-362 -602q-35 -59 -80 -89t-94 -30q-61 0 -105 38l36 50q28 -23 69 -23q67 0 122 84l33 51l-113 521h70l89 -451l264 451h71zM394 748l69 -31l-126 -100l-60 7z" />
    <glyph glyph-name="thorn" unicode="&#xfe;" horiz-adv-x="681" 
d="M529.5 498.5q51.5 -29.5 80 -82.5t28.5 -121q0 -83 -38 -151.5t-103 -108t-144 -39.5t-133.5 39.5t-72.5 108.5l-68 -338h-67l187 936h67l-65 -319q38 50 93 77.5t118 27.5q66 0 117.5 -29.5zM279.5 439.5q-50.5 -31.5 -80 -85t-29.5 -117.5q0 -81 49 -131t128 -50
q61 0 112 31.5t81 85.5t30 118q0 81 -49.5 130.5t-129.5 49.5q-61 0 -111.5 -31.5z" />
    <glyph glyph-name="ydieresis" unicode="&#xff;" horiz-adv-x="494" 
d="M549 524l-362 -602q-35 -59 -80 -89t-94 -30q-61 0 -105 38l36 50q28 -23 69 -23q67 0 122 84l33 51l-113 521h70l89 -451l264 451h71zM282.5 708.5q9.5 -10.5 9.5 -26.5q0 -21 -16 -36.5t-36 -15.5q-16 0 -26 10.5t-10 26.5q0 21 16 36.5t37 15.5q16 0 25.5 -10.5z
M446.5 708.5q9.5 -10.5 9.5 -26.5q0 -21 -16 -36.5t-36 -15.5q-16 0 -26 10.5t-10 26.5q0 21 16 36.5t37 15.5q16 0 25.5 -10.5z" />
    <glyph glyph-name="Amacron" unicode="&#x100;" horiz-adv-x="712" 
d="M580 0l-52 186h-389l-113 -186h-73l430 700h72l199 -700h-74zM176 248h335l-106 379zM289 821h306l-9 -46h-306z" />
    <glyph glyph-name="amacron" unicode="&#x101;" horiz-adv-x="676" 
d="M151.5 25.5q-51.5 29.5 -80 82.5t-28.5 121q0 83 38 151.5t103 108t144 39.5t133.5 -39t72.5 -108l29 143h67l-104 -524h-67l21 101q-38 -50 -93 -77.5t-118 -27.5q-66 0 -117.5 29.5zM401 84.5q51 31.5 80.5 85.5t29.5 118q0 80 -49 130t-128 50q-61 0 -112 -31.5
t-81 -85.5t-30 -118q0 -80 49.5 -130t129.5 -50q60 0 111 31.5zM267 698h276l-9 -47h-276z" />
    <glyph glyph-name="Abreve" unicode="&#x102;" horiz-adv-x="712" 
d="M580 0l-52 186h-389l-113 -186h-73l430 700h72l199 -700h-74zM176 248h335l-106 379zM381 876q0 -28 16.5 -45.5t43.5 -17.5q31 0 56 22t33 54h49q-12 -54 -53.5 -89t-92.5 -35q-46 0 -74 28t-28 73q0 7 2 23h49q-1 -4 -1 -13z" />
    <glyph glyph-name="abreve" unicode="&#x103;" horiz-adv-x="676" 
d="M151.5 25.5q-51.5 29.5 -80 82.5t-28.5 121q0 83 38 151.5t103 108t144 39.5t133.5 -39t72.5 -108l29 143h67l-104 -524h-67l21 101q-38 -50 -93 -77.5t-118 -27.5q-66 0 -117.5 29.5zM401 84.5q51 31.5 80.5 85.5t29.5 118q0 80 -49 130t-128 50q-61 0 -112 -31.5
t-81 -85.5t-30 -118q0 -80 49.5 -130t129.5 -50q60 0 111 31.5zM338 725q0 -28 16.5 -45.5t43.5 -17.5q31 0 56 22t33 54h49q-12 -54 -53.5 -89t-92.5 -35q-46 0 -74 28t-28 73q0 7 2 23h49q-1 -4 -1 -13z" />
    <glyph glyph-name="Aogonek" unicode="&#x104;" horiz-adv-x="712" 
d="M606 -148l10 -46q-42 -21 -82 -21q-35 0 -55 17t-20 49q0 40 28.5 77t91.5 76l-51 182h-389l-113 -186h-73l430 700h72l199 -699l1 -1q-71 -43 -100.5 -72t-29.5 -59q0 -15 9 -23t23 -8q25 0 49 14zM176 248h335l-106 379z" />
    <glyph glyph-name="aogonek" unicode="&#x105;" horiz-adv-x="676" 
d="M426.5 -72q-29.5 -29 -29.5 -59q0 -15 9 -23t23 -8q25 0 49 14l10 -46q-42 -21 -82 -21q-35 0 -55 17t-20 49q0 41 31 79.5t99 79.5l19 91q-38 -50 -93 -77.5t-118 -27.5q-66 0 -117.5 29.5t-80 82.5t-28.5 121q0 83 38 151.5t103 108t144 39.5t133.5 -39t72.5 -108
l29 143h67l-104 -523l1 -1q-71 -43 -100.5 -72zM401 84.5q51 31.5 80.5 85.5t29.5 118q0 80 -49 130t-128 50q-61 0 -112 -31.5t-81 -85.5t-30 -118q0 -80 49.5 -130t129.5 -50q60 0 111 31.5z" />
    <glyph glyph-name="Cacute" unicode="&#x106;" horiz-adv-x="728" 
d="M595.5 678.5q63.5 -26.5 109.5 -73.5l-46 -49q-39 42 -91 64.5t-111 22.5q-86 0 -161 -43.5t-119.5 -117t-44.5 -160.5q0 -73 34.5 -133t95.5 -95t136 -35q59 0 116 22.5t103 62.5l38 -45q-57 -49 -126.5 -77t-139.5 -28q-93 0 -167.5 43t-117 117t-42.5 164
q0 104 55 193t147 141.5t197 52.5q71 0 134.5 -26.5zM532 898l69 -31l-126 -100l-60 7z" />
    <glyph glyph-name="cacute" unicode="&#x107;" horiz-adv-x="581" 
d="M157 28q-53 30 -82.5 84t-29.5 124q0 83 38 149.5t103.5 104t145.5 37.5q60 0 109 -20t81 -56l-42 -46q-59 62 -151 62q-60 0 -110 -29t-78.5 -80.5t-28.5 -116.5q0 -82 48.5 -133t127.5 -51q52 0 96 17.5t76 51.5l35 -40q-40 -42 -95 -65t-121 -23q-69 0 -122 30z
M430 748l69 -31l-126 -100l-60 7z" />
    <glyph glyph-name="Ccircumflex" unicode="&#x108;" horiz-adv-x="728" 
d="M595.5 678.5q63.5 -26.5 109.5 -73.5l-46 -49q-39 42 -91 64.5t-111 22.5q-86 0 -161 -43.5t-119.5 -117t-44.5 -160.5q0 -73 34.5 -133t95.5 -95t136 -35q59 0 116 22.5t103 62.5l38 -45q-57 -49 -126.5 -77t-139.5 -28q-93 0 -167.5 43t-117 117t-42.5 164
q0 104 55 193t147 141.5t197 52.5q71 0 134.5 -26.5zM596 769h-69l-55 76l-86 -76h-69l127 125h74z" />
    <glyph glyph-name="ccircumflex" unicode="&#x109;" horiz-adv-x="581" 
d="M157 28q-53 30 -82.5 84t-29.5 124q0 83 38 149.5t103.5 104t145.5 37.5q60 0 109 -20t81 -56l-42 -46q-59 62 -151 62q-60 0 -110 -29t-78.5 -80.5t-28.5 -116.5q0 -82 48.5 -133t127.5 -51q52 0 96 17.5t76 51.5l35 -40q-40 -42 -95 -65t-121 -23q-69 0 -122 30z
M494 619h-69l-55 76l-86 -76h-69l127 125h74z" />
    <glyph glyph-name="Cdotaccent" unicode="&#x10a;" horiz-adv-x="728" 
d="M595.5 678.5q63.5 -26.5 109.5 -73.5l-46 -49q-39 42 -91 64.5t-111 22.5q-86 0 -161 -43.5t-119.5 -117t-44.5 -160.5q0 -73 34.5 -133t95.5 -95t136 -35q59 0 116 22.5t103 62.5l38 -45q-57 -49 -126.5 -77t-139.5 -28q-93 0 -167.5 43t-117 117t-42.5 164
q0 104 55 193t147 141.5t197 52.5q71 0 134.5 -26.5zM503.5 851.5q10.5 -11.5 10.5 -28.5q0 -23 -17 -39.5t-40 -16.5q-16 0 -27 11.5t-11 28.5q0 23 17 39.5t40 16.5q17 0 27.5 -11.5z" />
    <glyph glyph-name="cdotaccent" unicode="&#x10b;" horiz-adv-x="581" 
d="M157 28q-53 30 -82.5 84t-29.5 124q0 83 38 149.5t103.5 104t145.5 37.5q60 0 109 -20t81 -56l-42 -46q-59 62 -151 62q-60 0 -110 -29t-78.5 -80.5t-28.5 -116.5q0 -82 48.5 -133t127.5 -51q52 0 96 17.5t76 51.5l35 -40q-40 -42 -95 -65t-121 -23q-69 0 -122 30z
M402.5 711.5q10.5 -11.5 10.5 -28.5q0 -23 -17 -39.5t-40 -16.5q-16 0 -27 11.5t-11 28.5q0 23 17 39.5t40 16.5q17 0 27.5 -11.5z" />
    <glyph glyph-name="Ccaron" unicode="&#x10c;" horiz-adv-x="728" 
d="M595.5 678.5q63.5 -26.5 109.5 -73.5l-46 -49q-39 42 -91 64.5t-111 22.5q-86 0 -161 -43.5t-119.5 -117t-44.5 -160.5q0 -73 34.5 -133t95.5 -95t136 -35q59 0 116 22.5t103 62.5l38 -45q-57 -49 -126.5 -77t-139.5 -28q-93 0 -167.5 43t-117 117t-42.5 164
q0 104 55 193t147 141.5t197 52.5q71 0 134.5 -26.5zM551 895h69l-127 -125h-74l-78 125h69l55 -76z" />
    <glyph glyph-name="ccaron" unicode="&#x10d;" horiz-adv-x="581" 
d="M157 28q-53 30 -82.5 84t-29.5 124q0 83 38 149.5t103.5 104t145.5 37.5q60 0 109 -20t81 -56l-42 -46q-59 62 -151 62q-60 0 -110 -29t-78.5 -80.5t-28.5 -116.5q0 -82 48.5 -133t127.5 -51q52 0 96 17.5t76 51.5l35 -40q-40 -42 -95 -65t-121 -23q-69 0 -122 30z
M449 744h69l-127 -125h-74l-78 125h69l55 -76z" />
    <glyph glyph-name="Dcaron" unicode="&#x10e;" horiz-adv-x="795" 
d="M623.5 661.5q70.5 -38.5 110 -106t39.5 -152.5q0 -11 -2 -37q-10 -101 -69 -185t-151 -132.5t-196 -48.5h-296l139 700h264q91 0 161.5 -38.5zM703 394q0 69 -32.5 124t-89.5 86.5t-129 31.5h-197l-115 -573h227q82 0 155.5 39.5t121.5 108t57 151.5q2 22 2 32zM563 895
h69l-127 -125h-74l-78 125h69l55 -76z" />
    <glyph glyph-name="dcaron" unicode="&#x10f;" horiz-adv-x="718" 
d="M151.5 25.5q-51.5 29.5 -80 82.5t-28.5 121q0 83 38 151.5t103 108t144 39.5t133.5 -39t72.5 -108l73 361h67l-148 -742h-67l21 101q-38 -50 -93 -77.5t-118 -27.5q-66 0 -117.5 29.5zM401 84.5q51 31.5 80.5 85.5t29.5 118q0 80 -49 130t-128 50q-61 0 -112 -31.5
t-81 -85.5t-30 -118q0 -80 49.5 -130t129.5 -50q60 0 111 31.5zM751 742h64l-53 -191h-48z" />
    <glyph glyph-name="Dcroat" unicode="&#x110;" horiz-adv-x="795" 
d="M623.5 661.5q70.5 -38.5 110 -106t39.5 -152.5q0 -11 -2 -37q-10 -101 -69 -185t-151 -132.5t-196 -48.5h-296l65 328h-75l8 44h76l65 328h264q91 0 161.5 -38.5zM703 394q0 69 -32.5 124t-89.5 86.5t-129 31.5h-197l-53 -264h219l-9 -44h-219l-53 -265h227
q82 0 155.5 39.5t121.5 108t57 151.5q2 22 2 32z" />
    <glyph glyph-name="dcroat" unicode="&#x111;" horiz-adv-x="682" 
d="M722 604h-75l-120 -604h-67l20 99q-38 -49 -92.5 -76t-117.5 -27q-66 0 -118 29t-80.5 81t-28.5 120q0 81 37.5 147.5t102.5 105t144 38.5t133.5 -38t73.5 -105l46 230h-227l8 44h227l19 94h67l-19 -94h76zM401.5 83.5q50.5 30.5 80 83t29.5 114.5q0 79 -49 127.5
t-129 48.5q-61 0 -111.5 -30.5t-80.5 -83t-30 -114.5q0 -79 49.5 -127.5t129.5 -48.5q61 0 111.5 30.5z" />
    <glyph glyph-name="Emacron" unicode="&#x112;" horiz-adv-x="650" 
d="M654 636h-400l-50 -249h357l-13 -63h-357l-52 -261h412l-12 -63h-481l140 700h468zM313 821h306l-9 -46h-306z" />
    <glyph glyph-name="emacron" unicode="&#x113;" horiz-adv-x="599" 
d="M111 239v-3q0 -83 49.5 -133t132.5 -50q48 0 91 16t76 46l32 -44q-39 -36 -91 -55t-111 -19q-73 0 -128.5 30t-86 84t-30.5 125q0 82 38 148.5t104.5 104.5t146.5 38q104 0 164.5 -62t60.5 -166q0 -25 -5 -60h-443zM193.5 421q-59.5 -49 -76.5 -129h382q1 83 -42.5 130.5
t-122.5 47.5q-81 0 -140.5 -49zM222 701h276l-9 -47h-276z" />
    <glyph glyph-name="Ebreve" unicode="&#x114;" horiz-adv-x="650" 
d="M654 636h-400l-50 -249h357l-13 -63h-357l-52 -261h412l-12 -63h-481l140 700h468zM405 876q0 -28 16.5 -45.5t43.5 -17.5q31 0 56 22t33 54h49q-12 -54 -53.5 -89t-92.5 -35q-46 0 -74 28t-28 73q0 7 2 23h49q-1 -4 -1 -13z" />
    <glyph glyph-name="ebreve" unicode="&#x115;" horiz-adv-x="599" 
d="M111 239v-3q0 -83 49.5 -133t132.5 -50q48 0 91 16t76 46l32 -44q-39 -36 -91 -55t-111 -19q-73 0 -128.5 30t-86 84t-30.5 125q0 82 38 148.5t104.5 104.5t146.5 38q104 0 164.5 -62t60.5 -166q0 -25 -5 -60h-443zM193.5 421q-59.5 -49 -76.5 -129h382q1 83 -42.5 130.5
t-122.5 47.5q-81 0 -140.5 -49zM293 728q0 -28 16.5 -45.5t43.5 -17.5q31 0 56 22t33 54h49q-12 -54 -53.5 -89t-92.5 -35q-46 0 -74 28t-28 73q0 7 2 23h49q-1 -4 -1 -13z" />
    <glyph glyph-name="Edotaccent" unicode="&#x116;" horiz-adv-x="650" 
d="M654 636h-400l-50 -249h357l-13 -63h-357l-52 -261h412l-12 -63h-481l140 700h468zM503.5 851.5q10.5 -11.5 10.5 -28.5q0 -23 -17 -39.5t-40 -16.5q-16 0 -27 11.5t-11 28.5q0 23 17 39.5t40 16.5q17 0 27.5 -11.5z" />
    <glyph glyph-name="edotaccent" unicode="&#x117;" horiz-adv-x="599" 
d="M111 239v-3q0 -83 49.5 -133t132.5 -50q48 0 91 16t76 46l32 -44q-39 -36 -91 -55t-111 -19q-73 0 -128.5 30t-86 84t-30.5 125q0 82 38 148.5t104.5 104.5t146.5 38q104 0 164.5 -62t60.5 -166q0 -25 -5 -60h-443zM193.5 421q-59.5 -49 -76.5 -129h382q1 83 -42.5 130.5
t-122.5 47.5q-81 0 -140.5 -49zM392.5 714.5q10.5 -11.5 10.5 -28.5q0 -23 -17 -39.5t-40 -16.5q-16 0 -27 11.5t-11 28.5q0 23 17 39.5t40 16.5q17 0 27.5 -11.5z" />
    <glyph glyph-name="Eogonek" unicode="&#x118;" horiz-adv-x="650" 
d="M254 636l-50 -249h357l-13 -63h-357l-52 -261h412l-12 -62l1 -1q-71 -43 -100.5 -72t-29.5 -59q0 -15 9 -23t23 -8q25 0 49 14l10 -46q-42 -21 -82 -21q-35 0 -55 17t-20 49q0 38 27.5 75t86.5 74h-400l140 700h468l-12 -64h-400z" />
    <glyph glyph-name="eogonek" unicode="&#x119;" horiz-adv-x="599" 
d="M111 239v-3q0 -83 49.5 -133t132.5 -50q48 0 91 16t76 46l32 -44q-18 -16 -39 -30q-62 -45 -99 -91t-37 -80q0 -16 8.5 -24t23.5 -8q24 0 49 14l9 -46q-42 -21 -82 -21q-34 0 -53.5 19t-19.5 53q0 67 89 144q-23 -4 -51 -4q-73 0 -128.5 30t-86 84t-30.5 125
q0 82 38 148.5t104.5 104.5t146.5 38q104 0 164.5 -62t60.5 -166q0 -25 -5 -60h-443zM193.5 421q-59.5 -49 -76.5 -129h382q1 83 -42.5 130.5t-122.5 47.5q-81 0 -140.5 -49z" />
    <glyph glyph-name="Ecaron" unicode="&#x11a;" horiz-adv-x="650" 
d="M654 636h-400l-50 -249h357l-13 -63h-357l-52 -261h412l-12 -63h-481l140 700h468zM551 895h69l-127 -125h-74l-78 125h69l55 -76z" />
    <glyph glyph-name="ecaron" unicode="&#x11b;" horiz-adv-x="599" 
d="M111 239v-3q0 -83 49.5 -133t132.5 -50q48 0 91 16t76 46l32 -44q-39 -36 -91 -55t-111 -19q-73 0 -128.5 30t-86 84t-30.5 125q0 82 38 148.5t104.5 104.5t146.5 38q104 0 164.5 -62t60.5 -166q0 -25 -5 -60h-443zM193.5 421q-59.5 -49 -76.5 -129h382q1 83 -42.5 130.5
t-122.5 47.5q-81 0 -140.5 -49zM439 747h69l-127 -125h-74l-78 125h69l55 -76z" />
    <glyph glyph-name="Gcircumflex" unicode="&#x11c;" horiz-adv-x="769" 
d="M633 342h62l-51 -256q-122 -92 -253 -92q-93 0 -168.5 43t-118 117t-42.5 164q0 104 55 193t148 141.5t200 52.5q71 0 135.5 -25t109.5 -70l-45 -49q-38 39 -92 60.5t-113 21.5q-87 0 -162.5 -43.5t-120.5 -117.5t-45 -161q0 -74 35 -134t96.5 -95t137.5 -35q97 0 189 62
zM607 769h-69l-55 76l-86 -76h-69l127 125h74z" />
    <glyph glyph-name="gcircumflex" unicode="&#x11d;" horiz-adv-x="636" 
d="M103 -175q-53 20 -101 61l34 45q70 -66 180 -69q89 0 145.5 41.5t73.5 119.5l22 102q-36 -47 -87.5 -72.5t-109.5 -25.5q-62 0 -110.5 28t-75.5 78t-27 114q0 78 35.5 142.5t97 101.5t135.5 37q75 0 126 -36t68 -101l28 133h67l-102 -505q-21 -103 -94 -158.5t-188 -55.5
q-64 0 -117 20zM385.5 113q47.5 29 75 79t27.5 109q0 75 -46 121t-120 46q-57 0 -104.5 -29t-75 -79t-27.5 -109q0 -75 46 -121t120 -46q57 0 104.5 29zM519 619h-69l-55 76l-86 -76h-69l127 125h74z" />
    <glyph glyph-name="Gbreve" unicode="&#x11e;" horiz-adv-x="769" 
d="M633 342h62l-51 -256q-122 -92 -253 -92q-93 0 -168.5 43t-118 117t-42.5 164q0 104 55 193t148 141.5t200 52.5q71 0 135.5 -25t109.5 -70l-45 -49q-38 39 -92 60.5t-113 21.5q-87 0 -162.5 -43.5t-120.5 -117.5t-45 -161q0 -74 35 -134t96.5 -95t137.5 -35q97 0 189 62
zM416 876q0 -28 16.5 -45.5t43.5 -17.5q31 0 56 22t33 54h49q-12 -54 -53.5 -89t-92.5 -35q-46 0 -74 28t-28 73q0 7 2 23h49q-1 -4 -1 -13z" />
    <glyph glyph-name="gbreve" unicode="&#x11f;" horiz-adv-x="636" 
d="M103 -175q-53 20 -101 61l34 45q70 -66 180 -69q89 0 145.5 41.5t73.5 119.5l22 102q-36 -47 -87.5 -72.5t-109.5 -25.5q-62 0 -110.5 28t-75.5 78t-27 114q0 78 35.5 142.5t97 101.5t135.5 37q75 0 126 -36t68 -101l28 133h67l-102 -505q-21 -103 -94 -158.5t-188 -55.5
q-64 0 -117 20zM385.5 113q47.5 29 75 79t27.5 109q0 75 -46 121t-120 46q-57 0 -104.5 -29t-75 -79t-27.5 -109q0 -75 46 -121t120 -46q57 0 104.5 29zM328 725q0 -28 16.5 -45.5t43.5 -17.5q31 0 56 22t33 54h49q-12 -54 -53.5 -89t-92.5 -35q-46 0 -74 28t-28 73
q0 7 2 23h49q-1 -4 -1 -13z" />
    <glyph glyph-name="Gdotaccent" unicode="&#x120;" horiz-adv-x="769" 
d="M633 342h62l-51 -256q-122 -92 -253 -92q-93 0 -168.5 43t-118 117t-42.5 164q0 104 55 193t148 141.5t200 52.5q71 0 135.5 -25t109.5 -70l-45 -49q-38 39 -92 60.5t-113 21.5q-87 0 -162.5 -43.5t-120.5 -117.5t-45 -161q0 -74 35 -134t96.5 -95t137.5 -35q97 0 189 62
zM514.5 851.5q10.5 -11.5 10.5 -28.5q0 -23 -17 -39.5t-40 -16.5q-16 0 -27 11.5t-11 28.5q0 23 17 39.5t40 16.5q17 0 27.5 -11.5z" />
    <glyph glyph-name="gdotaccent" unicode="&#x121;" horiz-adv-x="636" 
d="M103 -175q-53 20 -101 61l34 45q70 -66 180 -69q89 0 145.5 41.5t73.5 119.5l22 102q-36 -47 -87.5 -72.5t-109.5 -25.5q-62 0 -110.5 28t-75.5 78t-27 114q0 78 35.5 142.5t97 101.5t135.5 37q75 0 126 -36t68 -101l28 133h67l-102 -505q-21 -103 -94 -158.5t-188 -55.5
q-64 0 -117 20zM385.5 113q47.5 29 75 79t27.5 109q0 75 -46 121t-120 46q-57 0 -104.5 -29t-75 -79t-27.5 -109q0 -75 46 -121t120 -46q57 0 104.5 29zM427.5 711.5q10.5 -11.5 10.5 -28.5q0 -23 -17 -39.5t-40 -16.5q-16 0 -27 11.5t-11 28.5q0 23 17 39.5t40 16.5
q17 0 27.5 -11.5z" />
    <glyph glyph-name="Gcommaaccent" unicode="&#x122;" horiz-adv-x="769" 
d="M633 342h62l-51 -256q-122 -92 -253 -92q-93 0 -168.5 43t-118 117t-42.5 164q0 104 55 193t148 141.5t200 52.5q71 0 135.5 -25t109.5 -70l-45 -49q-38 39 -92 60.5t-113 21.5q-87 0 -162.5 -43.5t-120.5 -117.5t-45 -161q0 -74 35 -134t96.5 -95t137.5 -35q97 0 189 62
zM347 -61h66l-79 -156h-50z" />
    <glyph glyph-name="gcommaaccent" unicode="&#x123;" horiz-adv-x="636" 
d="M103 -175q-53 20 -101 61l34 45q70 -66 180 -69q89 0 145.5 41.5t73.5 119.5l22 102q-36 -47 -87.5 -72.5t-109.5 -25.5q-62 0 -110.5 28t-75.5 78t-27 114q0 78 35.5 142.5t97 101.5t135.5 37q75 0 126 -36t68 -101l28 133h67l-102 -505q-21 -103 -94 -158.5t-188 -55.5
q-64 0 -117 20zM385.5 113q47.5 29 75 79t27.5 109q0 75 -46 121t-120 46q-57 0 -104.5 -29t-75 -79t-27.5 -109q0 -75 46 -121t120 -46q57 0 104.5 29zM406 614h-66l79 156h50z" />
    <glyph glyph-name="Hcircumflex" unicode="&#x124;" horiz-adv-x="887" 
d="M750 700h69l-140 -700h-69l63 316h-437l-63 -316h-69l140 700h69l-64 -321h437zM685 769h-69l-55 76l-86 -76h-69l127 125h74z" />
    <glyph glyph-name="hcircumflex" unicode="&#x125;" horiz-adv-x="662" 
d="M547.5 485.5q48.5 -42.5 48.5 -118.5q0 -26 -6 -55l-62 -312h-68l61 305q4 20 4 42q0 57 -34.5 88.5t-98.5 31.5q-81 -1 -140 -51.5t-77 -137.5l-55 -278h-67l146 742h68l-65 -328q35 55 88.5 84t121.5 30q87 0 135.5 -42.5zM385 811h-69l-55 76l-86 -76h-69l127 125h74z
" />
    <glyph glyph-name="Hbar" unicode="&#x126;" horiz-adv-x="835" 
d="M851 570l-8 -45h-85l-105 -525h-69l63 316h-437l-63 -316h-69l105 525h-85l8 45h86l26 130h69l-26 -130h437l26 130h69l-26 -130h84zM660 379l29 146h-437l-29 -146h437z" />
    <glyph glyph-name="hbar" unicode="&#x127;" horiz-adv-x="661" 
d="M546 475q48 -42 48 -117q0 -29 -5 -52l-61 -306h-68l60 299q4 19 4 39q0 56 -35 87t-99 31q-81 -1 -140 -51t-76 -134l-54 -271h-67l119 604h-75l8 44h76l18 94h68l-19 -94h216l-8 -44h-216l-40 -199q35 54 88.5 82.5t121.5 29.5q88 0 136 -42z" />
    <glyph glyph-name="Itilde" unicode="&#x128;" horiz-adv-x="289" 
d="M266 700l-140 -700h-69l140 700h69zM377 795q-25 -30 -63 -30q-20 0 -35 8t-35 24q-16 13 -26 19t-22 6q-19 0 -31.5 -14.5t-17.5 -38.5h-48q9 47 33 77t62 30q21 0 36.5 -8.5t34.5 -24.5q18 -13 27 -18.5t20 -5.5q20 0 33.5 14.5t17.5 38.5h49q-10 -47 -35 -77z" />
    <glyph glyph-name="itilde" unicode="&#x129;" horiz-adv-x="263" 
d="M217 524l-104 -524h-67l104 524h67zM317 643.5q-23 -29.5 -56 -29.5q-18 0 -30.5 8t-28.5 24q-12 12 -20 17.5t-17 5.5q-15 0 -25.5 -14t-15.5 -37h-48q10 48 33 77.5t57 29.5q17 0 30 -8t28 -23q13 -12 21 -17.5t17 -5.5q31 0 41 50h47q-10 -48 -33 -77.5z" />
    <glyph glyph-name="Imacron" unicode="&#x12a;" horiz-adv-x="289" 
d="M266 700l-140 -700h-69l140 700h69zM118 821h276l-9 -47h-276z" />
    <glyph glyph-name="imacron" unicode="&#x12b;" horiz-adv-x="263" 
d="M217 524l-104 -524h-67l104 524h67zM99 698h236l-9 -47h-236z" />
    <glyph glyph-name="Ibreve" unicode="&#x12c;" horiz-adv-x="289" 
d="M266 700l-140 -700h-69l140 700h69zM194 876q0 -28 16.5 -45.5t43.5 -17.5q31 0 56 22t33 54h49q-12 -54 -53.5 -89t-92.5 -35q-46 0 -74 28t-28 73q0 7 2 23h49q-1 -4 -1 -13z" />
    <glyph glyph-name="ibreve" unicode="&#x12d;" horiz-adv-x="263" 
d="M217 524l-104 -524h-67l104 524h67zM150 725q0 -28 16.5 -45.5t43.5 -17.5q31 0 56 22t33 54h49q-12 -54 -53.5 -89t-92.5 -35q-46 0 -74 28t-28 73q0 7 2 23h49q-1 -4 -1 -13z" />
    <glyph glyph-name="Iogonek" unicode="&#x12e;" horiz-adv-x="289" 
d="M25.5 -72q-29.5 -29 -29.5 -59q0 -15 9 -23t23 -8q25 0 49 14l10 -46q-42 -21 -82 -21q-35 0 -55 17t-20 49q0 40 31 78.5t98 79.5l138 691h69l-140 -700q-71 -43 -100.5 -72z" />
    <glyph glyph-name="iogonek" unicode="&#x12f;" horiz-adv-x="263" 
d="M250.5 711.5q10.5 -11.5 10.5 -28.5q0 -23 -17 -39.5t-40 -16.5q-16 0 -27 11.5t-11 28.5q0 23 17 39.5t40 16.5q17 0 27.5 -11.5zM150 524h67l-104 -524q-71 -43 -100.5 -72t-29.5 -59q0 -15 9 -23t23 -8q25 0 49 14l10 -46q-42 -21 -82 -21q-35 0 -55 17t-20 49
q0 41 31 80t100 80z" />
    <glyph glyph-name="Idotaccent" unicode="&#x130;" horiz-adv-x="289" 
d="M266 700l-140 -700h-69l140 700h69zM291.5 851.5q10.5 -11.5 10.5 -28.5q0 -23 -17 -39.5t-40 -16.5q-16 0 -27 11.5t-11 28.5q0 23 17 39.5t40 16.5q17 0 27.5 -11.5z" />
    <glyph glyph-name="dotlessi" unicode="&#x131;" horiz-adv-x="263" 
d="M217 524l-104 -524h-67l104 524h67z" />
    <glyph glyph-name="IJ" unicode="&#x132;" horiz-adv-x="768" 
d="M266 700l-140 -700h-69l140 700h69zM762 700l-98 -493q-20 -100 -82.5 -155t-154.5 -55q-56 0 -100 25.5t-71 73.5l46 53q24 -41 59.5 -62.5t77.5 -21.5q61 0 101.5 37t54.5 106l86 428h-252l12 64h321z" />
    <glyph glyph-name="ij" unicode="&#x133;" horiz-adv-x="519" 
d="M217 524l-104 -524h-67l104 524h67zM249.5 711.5q10.5 -11.5 10.5 -28.5q0 -23 -17 -39.5t-40 -16.5q-16 0 -27 11.5t-11 28.5q0 23 17 39.5t40 16.5q17 0 27.5 -11.5zM187 -138q43 -1 72.5 31t41.5 91l108 540h67l-110 -554q-16 -82 -59 -124t-108 -42q-39 0 -78 17
l22 50q16 -7 44 -9zM506.5 711.5q10.5 -11.5 10.5 -28.5q0 -23 -17 -39.5t-40 -16.5q-16 0 -27 11.5t-11 28.5q0 23 17 39.5t40 16.5q17 0 27.5 -11.5z" />
    <glyph glyph-name="Jcircumflex" unicode="&#x134;" horiz-adv-x="479" 
d="M473 700l-98 -493q-20 -100 -82.5 -155t-154.5 -55q-56 0 -100 25.5t-71 73.5l46 53q24 -41 59.5 -62.5t77.5 -21.5q61 0 101.5 37t54.5 106l86 428h-252l12 64h321zM462 769h-69l-55 76l-86 -76h-69l127 125h74z" />
    <glyph glyph-name="jcircumflex" unicode="&#x135;" horiz-adv-x="256" 
d="M-76 -138q43 -1 72.5 31t41.5 91l108 540h67l-110 -554q-16 -82 -59 -124t-108 -42q-39 0 -78 17l22 50q16 -7 44 -9zM335 619h-69l-55 76l-86 -76h-69l127 125h74z" />
    <glyph glyph-name="Kcommaaccent" unicode="&#x136;" horiz-adv-x="694" 
d="M741 700l-343 -311l220 -389h-81l-196 337l-179 -162l-35 -175h-69l140 700h69l-84 -420l468 420h90zM250 -61h66l-79 -156h-50z" />
    <glyph glyph-name="kcommaaccent" unicode="&#x137;" horiz-adv-x="576" 
d="M593 524l-244 -207l158 -317h-82l-130 271l-148 -126l-29 -145h-67l148 742h67l-100 -503l338 285h89zM212 -61h66l-79 -156h-50z" />
    <glyph glyph-name="kgreenlandic" unicode="&#x138;" horiz-adv-x="571" 
d="M588 524l-244 -207l158 -317h-82l-130 271l-148 -126l-29 -145h-67l104 524h68l-57 -285l338 285h89z" />
    <glyph glyph-name="Lacute" unicode="&#x139;" horiz-adv-x="513" 
d="M139 63h308l-12 -63h-377l140 700h69zM327 898l69 -31l-126 -100l-60 7z" />
    <glyph glyph-name="lacute" unicode="&#x13a;" horiz-adv-x="273" 
d="M266 742l-148 -742h-67l148 742h67zM322 940l69 -31l-126 -100l-60 7z" />
    <glyph glyph-name="Lcommaaccent" unicode="&#x13b;" horiz-adv-x="513" 
d="M139 63h308l-12 -63h-377l140 700h69zM210 -61h66l-79 -156h-50z" />
    <glyph glyph-name="lcommaaccent" unicode="&#x13c;" horiz-adv-x="273" 
d="M266 742l-148 -742h-67l148 742h67zM42 -61h66l-79 -156h-50z" />
    <glyph glyph-name="Lcaron" unicode="&#x13d;" horiz-adv-x="513" 
d="M139 63h308l-12 -63h-377l140 700h69zM410 699h64l-53 -191h-48z" />
    <glyph glyph-name="lcaron" unicode="&#x13e;" horiz-adv-x="310" 
d="M266 742l-148 -742h-67l148 742h67zM344 742h64l-53 -191h-48z" />
    <glyph glyph-name="Ldot" unicode="&#x13f;" horiz-adv-x="513" 
d="M139 63h308l-12 -63h-377l140 700h69zM436.5 426.5q10.5 -11.5 10.5 -28.5q0 -23 -17 -39.5t-40 -16.5q-16 0 -27 11.5t-11 28.5q0 23 17 39.5t40 16.5q17 0 27.5 -11.5z" />
    <glyph glyph-name="ldot" unicode="&#x140;" horiz-adv-x="371" 
d="M266 742l-148 -742h-67l148 742h67zM346.5 426.5q10.5 -11.5 10.5 -28.5q0 -23 -17 -39.5t-40 -16.5q-16 0 -27 11.5t-11 28.5q0 23 17 39.5t40 16.5q17 0 27.5 -11.5z" />
    <glyph glyph-name="Lslash" unicode="&#x141;" horiz-adv-x="534" 
d="M160 63h308l-12 -63h-377l64 321l-97 -50l9 51l99 51l65 327h69l-58 -287l140 72l-10 -52l-140 -72z" />
    <glyph glyph-name="lslash" unicode="&#x142;" horiz-adv-x="345" 
d="M366 485l-9 -52l-120 -62l-74 -371h-67l66 333l-119 -62l9 51l121 63l71 357h67l-64 -319z" />
    <glyph glyph-name="Nacute" unicode="&#x143;" horiz-adv-x="796" 
d="M705 700h68l-140 -700h-73l-314 592l-119 -592h-69l140 700h73l314 -593zM575 898l69 -31l-126 -100l-60 7z" />
    <glyph glyph-name="nacute" unicode="&#x144;" horiz-adv-x="656" 
d="M541.5 485.5q48.5 -42.5 48.5 -118.5q0 -26 -6 -55l-62 -312h-68l61 305q4 20 4 42q0 57 -34.5 88.5t-98.5 31.5q-81 -1 -140 -51.5t-77 -137.5l-55 -278h-67l103 524h68l-22 -110q35 55 88.5 84t121.5 30q87 0 135.5 -42.5zM478 748l69 -31l-126 -100l-60 7z" />
    <glyph glyph-name="Ncommaaccent" unicode="&#x145;" horiz-adv-x="796" 
d="M705 700h68l-140 -700h-73l-314 592l-119 -592h-69l140 700h73l314 -593zM304 -61h66l-79 -156h-50z" />
    <glyph glyph-name="ncommaaccent" unicode="&#x146;" horiz-adv-x="656" 
d="M541.5 485.5q48.5 -42.5 48.5 -118.5q0 -26 -6 -55l-62 -312h-68l61 305q4 20 4 42q0 57 -34.5 88.5t-98.5 31.5q-81 -1 -140 -51.5t-77 -137.5l-55 -278h-67l103 524h68l-22 -110q35 55 88.5 84t121.5 30q87 0 135.5 -42.5zM252 -61h66l-79 -156h-50z" />
    <glyph glyph-name="Ncaron" unicode="&#x147;" horiz-adv-x="796" 
d="M705 700h68l-140 -700h-73l-314 592l-119 -592h-69l140 700h73l314 -593zM594 895h69l-127 -125h-74l-78 125h69l55 -76z" />
    <glyph glyph-name="ncaron" unicode="&#x148;" horiz-adv-x="656" 
d="M541.5 485.5q48.5 -42.5 48.5 -118.5q0 -26 -6 -55l-62 -312h-68l61 305q4 20 4 42q0 57 -34.5 88.5t-98.5 31.5q-81 -1 -140 -51.5t-77 -137.5l-55 -278h-67l103 524h68l-22 -110q35 55 88.5 84t121.5 30q87 0 135.5 -42.5zM497 744h69l-127 -125h-74l-78 125h69l55 -76
z" />
    <glyph glyph-name="napostrophe" unicode="&#x149;" horiz-adv-x="761" 
d="M114 700h54l-61 -260h-46zM647.5 485.5q48.5 -42.5 48.5 -118.5q0 -26 -6 -55l-62 -312h-68l61 305q4 20 4 42q0 57 -34.5 88.5t-98.5 31.5q-81 -1 -140 -51.5t-77 -137.5l-55 -278h-67l103 524h68l-22 -110q35 55 88.5 84t121.5 30q87 0 135.5 -42.5z" />
    <glyph glyph-name="Eng" unicode="&#x14a;" horiz-adv-x="796" 
d="M633 0q-19 -93 -81.5 -146.5t-153.5 -53.5q-55 0 -98 23t-70 66l46 52q24 -36 59 -54.5t75 -18.5q57 0 97 34t56 98h-3l-314 590l-119 -590h-69l140 700h73l314 -591l120 591h68z" />
    <glyph glyph-name="eng" unicode="&#x14b;" horiz-adv-x="654" 
d="M548 487.5q43 -39.5 43 -111.5q0 -25 -6 -54l-69 -345q-17 -84 -65.5 -128.5t-111.5 -44.5q-29 0 -55 9.5t-46 26.5l35 53q30 -27 73 -29q38 0 64.5 26.5t36.5 79.5l68 336q5 25 5 42q0 55 -34 85t-95 30q-81 0 -141 -49.5t-80 -131.5l-57 -282h-67l104 524h68l-25 -122
q39 61 98.5 93t133.5 32q80 0 123 -39.5z" />
    <glyph glyph-name="Omacron" unicode="&#x14c;" horiz-adv-x="819" 
d="M637.5 660q77.5 -45 119.5 -122.5t37 -171.5q-4 -101 -60.5 -186.5t-147 -135.5t-193.5 -50q-94 0 -169.5 43t-118.5 117t-43 164q0 105 55 194t147.5 141t198.5 52q97 0 174.5 -45zM298 598.5q-75 -43.5 -120.5 -117t-45.5 -159.5q0 -73 35 -134t96.5 -96t135.5 -35
q84 0 159 44t120 118t45 160q0 73 -35 133t-95.5 95t-134.5 35q-85 0 -160 -43.5zM332 821h306l-9 -46h-306z" />
    <glyph glyph-name="omacron" unicode="&#x14d;" horiz-adv-x="621" 
d="M462.5 496.5q54.5 -30.5 84.5 -84.5t30 -124q0 -83 -38.5 -149t-105.5 -103.5t-149 -37.5q-71 0 -125 30.5t-84 84.5t-30 124q0 83 38.5 149t105 103.5t148.5 37.5q71 0 125.5 -30.5zM220 438.5q-50 -29.5 -78.5 -81.5t-28.5 -117q0 -82 48.5 -133t128.5 -51q61 0 111 29
t78.5 81t28.5 118q0 82 -48.5 133t-128.5 51q-61 0 -111 -29.5zM233 698h276l-9 -47h-276z" />
    <glyph glyph-name="Obreve" unicode="&#x14e;" horiz-adv-x="819" 
d="M637.5 660q77.5 -45 119.5 -122.5t37 -171.5q-4 -101 -60.5 -186.5t-147 -135.5t-193.5 -50q-94 0 -169.5 43t-118.5 117t-43 164q0 105 55 194t147.5 141t198.5 52q97 0 174.5 -45zM298 598.5q-75 -43.5 -120.5 -117t-45.5 -159.5q0 -73 35 -134t96.5 -96t135.5 -35
q84 0 159 44t120 118t45 160q0 73 -35 133t-95.5 95t-134.5 35q-85 0 -160 -43.5zM424 876q0 -28 16.5 -45.5t43.5 -17.5q31 0 56 22t33 54h49q-12 -54 -53.5 -89t-92.5 -35q-46 0 -74 28t-28 73q0 7 2 23h49q-1 -4 -1 -13z" />
    <glyph glyph-name="obreve" unicode="&#x14f;" horiz-adv-x="621" 
d="M462.5 496.5q54.5 -30.5 84.5 -84.5t30 -124q0 -83 -38.5 -149t-105.5 -103.5t-149 -37.5q-71 0 -125 30.5t-84 84.5t-30 124q0 83 38.5 149t105 103.5t148.5 37.5q71 0 125.5 -30.5zM220 438.5q-50 -29.5 -78.5 -81.5t-28.5 -117q0 -82 48.5 -133t128.5 -51q61 0 111 29
t78.5 81t28.5 118q0 82 -48.5 133t-128.5 51q-61 0 -111 -29.5zM304 725q0 -28 16.5 -45.5t43.5 -17.5q31 0 56 22t33 54h49q-12 -54 -53.5 -89t-92.5 -35q-46 0 -74 28t-28 73q0 7 2 23h49q-1 -4 -1 -13z" />
    <glyph glyph-name="Ohungarumlaut" unicode="&#x150;" horiz-adv-x="819" 
d="M637.5 660q77.5 -45 119.5 -122.5t37 -171.5q-4 -101 -60.5 -186.5t-147 -135.5t-193.5 -50q-94 0 -169.5 43t-118.5 117t-43 164q0 105 55 194t147.5 141t198.5 52q97 0 174.5 -45zM298 598.5q-75 -43.5 -120.5 -117t-45.5 -159.5q0 -73 35 -134t96.5 -96t135.5 -35
q84 0 159 44t120 118t45 160q0 73 -35 133t-95.5 95t-134.5 35q-85 0 -160 -43.5zM457 901l53 -28l-95 -106l-51 7zM599 901l53 -28l-95 -106l-51 7z" />
    <glyph glyph-name="ohungarumlaut" unicode="&#x151;" horiz-adv-x="621" 
d="M462.5 496.5q54.5 -30.5 84.5 -84.5t30 -124q0 -83 -38.5 -149t-105.5 -103.5t-149 -37.5q-71 0 -125 30.5t-84 84.5t-30 124q0 83 38.5 149t105 103.5t148.5 37.5q71 0 125.5 -30.5zM220 438.5q-50 -29.5 -78.5 -81.5t-28.5 -117q0 -82 48.5 -133t128.5 -51q61 0 111 29
t78.5 81t28.5 118q0 82 -48.5 133t-128.5 51q-61 0 -111 -29.5zM335 751l53 -28l-95 -106l-51 7zM477 751l53 -28l-95 -106l-51 7z" />
    <glyph glyph-name="OE" unicode="&#x152;" horiz-adv-x="1097" 
d="M702 636l-51 -249h356l-12 -63h-356l-53 -261h412l-12 -63h-592q-93 0 -169 42.5t-120 117t-44 164.5q0 101 55 187.5t147.5 137.5t199.5 51h650l-12 -64h-399zM517 62l115 575h-174q-86 0 -161.5 -42.5t-120.5 -114.5t-45 -155q0 -74 35 -134t96.5 -94.5t136.5 -34.5
h118z" />
    <glyph glyph-name="oe" unicode="&#x153;" horiz-adv-x="1061" 
d="M571 250q-2 -58 19.5 -102.5t63.5 -69t97 -24.5q50 0 95.5 17.5t79.5 51.5l34 -39q-42 -42 -98 -64t-120 -22q-79 0 -135 38.5t-78 106.5q-36 -68 -100 -106.5t-144 -38.5q-72 0 -126 29.5t-84 83.5t-30 123q0 83 38 150t104.5 105t148.5 38q79 0 135.5 -39t79.5 -107
q35 68 98.5 107t142.5 39q70 0 121.5 -29.5t79.5 -82.5t28 -123q0 -21 -3 -42h-447zM649.5 424q-58.5 -51 -74.5 -133h380q3 82 -42.5 133t-124.5 51q-80 0 -138.5 -51zM459.5 417.5q-48.5 50.5 -128.5 50.5q-61 0 -111 -30t-78.5 -83t-28.5 -119q0 -80 48.5 -130t127.5 -50
q61 0 111 29.5t79 82t29 118.5q0 81 -48.5 131.5z" />
    <glyph glyph-name="Racute" unicode="&#x154;" horiz-adv-x="724" 
d="M636.5 337.5q-55.5 -71.5 -156.5 -97.5l119 -240h-80l-106 228q-32 -2 -49 -2h-192l-45 -226h-69l140 700h260q113 0 173.5 -49t60.5 -139q0 -103 -55.5 -174.5zM558 344.5q66 55.5 66 154.5q0 67 -46 102t-132 35h-192l-69 -347h191q116 0 182 55.5zM520 898l69 -31
l-126 -100l-60 7z" />
    <glyph glyph-name="racute" unicode="&#x155;" horiz-adv-x="368" 
d="M286 495.5q54 30.5 121 31.5l-8 -65q-82 1 -143.5 -48.5t-86.5 -133.5l-56 -280h-67l104 524h68l-24 -117q38 58 92 88.5zM331 748l69 -31l-126 -100l-60 7z" />
    <glyph glyph-name="Rcommaaccent" unicode="&#x156;" horiz-adv-x="724" 
d="M636.5 337.5q-55.5 -71.5 -156.5 -97.5l119 -240h-80l-106 228q-32 -2 -49 -2h-192l-45 -226h-69l140 700h260q113 0 173.5 -49t60.5 -139q0 -103 -55.5 -174.5zM558 344.5q66 55.5 66 154.5q0 67 -46 102t-132 35h-192l-69 -347h191q116 0 182 55.5zM266 -61h66
l-79 -156h-50z" />
    <glyph glyph-name="rcommaaccent" unicode="&#x157;" horiz-adv-x="368" 
d="M286 495.5q54 30.5 121 31.5l-8 -65q-82 1 -143.5 -48.5t-86.5 -133.5l-56 -280h-67l104 524h68l-24 -117q38 58 92 88.5zM35 -61h66l-79 -156h-50z" />
    <glyph glyph-name="Rcaron" unicode="&#x158;" horiz-adv-x="724" 
d="M636.5 337.5q-55.5 -71.5 -156.5 -97.5l119 -240h-80l-106 228q-32 -2 -49 -2h-192l-45 -226h-69l140 700h260q113 0 173.5 -49t60.5 -139q0 -103 -55.5 -174.5zM558 344.5q66 55.5 66 154.5q0 67 -46 102t-132 35h-192l-69 -347h191q116 0 182 55.5zM539 895h69
l-127 -125h-74l-78 125h69l55 -76z" />
    <glyph glyph-name="rcaron" unicode="&#x159;" horiz-adv-x="368" 
d="M286 495.5q54 30.5 121 31.5l-8 -65q-82 1 -143.5 -48.5t-86.5 -133.5l-56 -280h-67l104 524h68l-24 -117q38 58 92 88.5zM350 744h69l-127 -125h-74l-78 125h69l55 -76z" />
    <glyph glyph-name="Sacute" unicode="&#x15a;" horiz-adv-x="603" 
d="M467 691q56 -17 97 -46l-36 -60q-40 28 -89.5 42t-95.5 14q-73 0 -119.5 -28.5t-50.5 -76.5l-1 -14q0 -38 21.5 -62.5t52.5 -38.5t86 -32q63 -21 101.5 -39.5t65.5 -53t27 -89.5q0 -16 -1 -25q-5 -57 -41 -99.5t-95.5 -66t-133.5 -23.5q-73 0 -140.5 29t-113.5 77l39 59
q41 -47 101 -73t121 -26q86 0 137 36.5t51 98.5q0 39 -21.5 64t-54 39.5t-87.5 32.5q-63 20 -101 38t-64.5 52t-26.5 88q0 15 1 23q5 53 38.5 93t90.5 62t128 22q58 0 114 -17zM431 898l69 -31l-126 -100l-60 7z" />
    <glyph glyph-name="sacute" unicode="&#x15b;" horiz-adv-x="464" 
d="M85 19.5q-61 26.5 -94 70.5l34 45q31 -38 82 -61.5t106 -23.5q53 0 87.5 25.5t34.5 66.5q0 34 -28 54.5t-84 43.5q-46 19 -74.5 35t-48.5 42t-20 65q0 67 50.5 107.5t129.5 40.5q55 0 104.5 -17.5t83.5 -46.5l-34 -48q-32 25 -73.5 40t-82.5 15q-49 0 -80.5 -23
t-31.5 -61q0 -33 27 -52.5t84 -42.5q47 -19 76.5 -35t50 -43t20.5 -67q0 -70 -54 -113t-137 -43q-67 0 -128 26.5zM374 748l69 -31l-126 -100l-60 7z" />
    <glyph glyph-name="Scircumflex" unicode="&#x15c;" horiz-adv-x="603" 
d="M467 691q56 -17 97 -46l-36 -60q-40 28 -89.5 42t-95.5 14q-73 0 -119.5 -28.5t-50.5 -76.5l-1 -14q0 -38 21.5 -62.5t52.5 -38.5t86 -32q63 -21 101.5 -39.5t65.5 -53t27 -89.5q0 -16 -1 -25q-5 -57 -41 -99.5t-95.5 -66t-133.5 -23.5q-73 0 -140.5 29t-113.5 77l39 59
q41 -47 101 -73t121 -26q86 0 137 36.5t51 98.5q0 39 -21.5 64t-54 39.5t-87.5 32.5q-63 20 -101 38t-64.5 52t-26.5 88q0 15 1 23q5 53 38.5 93t90.5 62t128 22q58 0 114 -17zM495 769h-69l-55 76l-86 -76h-69l127 125h74z" />
    <glyph glyph-name="scircumflex" unicode="&#x15d;" horiz-adv-x="464" 
d="M85 19.5q-61 26.5 -94 70.5l34 45q31 -38 82 -61.5t106 -23.5q53 0 87.5 25.5t34.5 66.5q0 34 -28 54.5t-84 43.5q-46 19 -74.5 35t-48.5 42t-20 65q0 67 50.5 107.5t129.5 40.5q55 0 104.5 -17.5t83.5 -46.5l-34 -48q-32 25 -73.5 40t-82.5 15q-49 0 -80.5 -23
t-31.5 -61q0 -33 27 -52.5t84 -42.5q47 -19 76.5 -35t50 -43t20.5 -67q0 -70 -54 -113t-137 -43q-67 0 -128 26.5zM438 619h-69l-55 76l-86 -76h-69l127 125h74z" />
    <glyph glyph-name="Scedilla" unicode="&#x15e;" horiz-adv-x="603" 
d="M223.5 612.5q-46.5 -28.5 -50.5 -76.5l-1 -14q0 -38 21.5 -62.5t52.5 -38.5t86 -32q63 -21 101.5 -39.5t65.5 -53t27 -89.5q0 -61 -31.5 -108t-88.5 -74.5t-131 -31.5l-24 -45q33 -4 50 -22t17 -43q0 -43 -35 -71t-87 -28q-22 0 -44 6t-38 16l25 46q12 -7 27.5 -11.5
t30.5 -4.5q28 0 45.5 14.5t17.5 32.5q0 15 -12 24.5t-34 9.5h-30l38 78q-64 6 -122.5 33.5t-98.5 70.5l39 59q41 -47 101 -73t121 -26q86 0 137 36.5t51 98.5q0 39 -21.5 64t-54 39.5t-87.5 32.5q-63 20 -101 38t-64.5 52t-26.5 88q0 15 1 23q5 53 38.5 93t90.5 62t128 22
q58 0 114 -17t97 -46l-36 -60q-40 28 -89.5 42t-95.5 14q-73 0 -119.5 -28.5z" />
    <glyph glyph-name="scedilla" unicode="&#x15f;" horiz-adv-x="464" 
d="M177.5 450q-31.5 -23 -31.5 -61q0 -33 27 -52.5t84 -42.5q47 -19 76.5 -35t50 -43t20.5 -67q0 -70 -53.5 -112.5t-136.5 -43.5l-23 -45q33 -4 50 -22t17 -43q0 -43 -35 -71t-87 -28q-22 0 -44 6t-38 16l25 46q12 -7 27.5 -11.5t30.5 -4.5q28 0 45.5 14.5t17.5 32.5
q0 15 -12 24.5t-34 9.5h-30l39 80q-53 8 -99 33t-73 60l34 45q31 -38 82 -61.5t106 -23.5q53 0 87.5 25.5t34.5 66.5q0 34 -28 54.5t-84 43.5q-46 19 -74.5 35t-48.5 42t-20 65q0 67 50.5 107.5t129.5 40.5q55 0 104.5 -17.5t83.5 -46.5l-34 -48q-32 25 -73.5 40t-82.5 15
q-49 0 -80.5 -23z" />
    <glyph glyph-name="Scaron" unicode="&#x160;" horiz-adv-x="603" 
d="M467 691q56 -17 97 -46l-36 -60q-40 28 -89.5 42t-95.5 14q-73 0 -119.5 -28.5t-50.5 -76.5l-1 -14q0 -38 21.5 -62.5t52.5 -38.5t86 -32q63 -21 101.5 -39.5t65.5 -53t27 -89.5q0 -16 -1 -25q-5 -57 -41 -99.5t-95.5 -66t-133.5 -23.5q-73 0 -140.5 29t-113.5 77l39 59
q41 -47 101 -73t121 -26q86 0 137 36.5t51 98.5q0 39 -21.5 64t-54 39.5t-87.5 32.5q-63 20 -101 38t-64.5 52t-26.5 88q0 15 1 23q5 53 38.5 93t90.5 62t128 22q58 0 114 -17zM450 895h69l-127 -125h-74l-78 125h69l55 -76z" />
    <glyph glyph-name="scaron" unicode="&#x161;" horiz-adv-x="464" 
d="M85 19.5q-61 26.5 -94 70.5l34 45q31 -38 82 -61.5t106 -23.5q53 0 87.5 25.5t34.5 66.5q0 34 -28 54.5t-84 43.5q-46 19 -74.5 35t-48.5 42t-20 65q0 67 50.5 107.5t129.5 40.5q55 0 104.5 -17.5t83.5 -46.5l-34 -48q-32 25 -73.5 40t-82.5 15q-49 0 -80.5 -23
t-31.5 -61q0 -33 27 -52.5t84 -42.5q47 -19 76.5 -35t50 -43t20.5 -67q0 -70 -54 -113t-137 -43q-67 0 -128 26.5zM393 744h69l-127 -125h-74l-78 125h69l55 -76z" />
    <glyph glyph-name="uni0162" unicode="&#x162;" horiz-adv-x="553" 
d="M251 0l-27 -52q33 -4 50 -22t17 -43q0 -43 -35 -71t-87 -28q-22 0 -44 6t-38 16l25 46q12 -7 27.5 -11.5t30.5 -4.5q28 0 45.5 14.5t17.5 32.5q0 15 -12 24.5t-34 9.5h-30l41 83h-9l128 636h-230l12 64h530l-12 -64h-231l-128 -636h-7z" />
    <glyph glyph-name="uni0163" unicode="&#x163;" horiz-adv-x="386" 
d="M161 153q-4 -19 -4 -37q0 -30 13.5 -43.5t41.5 -13.5q45 2 93 30l14 -54q-54 -34 -110 -37l-26 -50q33 -4 50 -22t17 -43q0 -43 -35 -71t-87 -28q-22 0 -44 6t-38 16l25 46q12 -7 27.5 -11.5t30.5 -4.5q28 0 45.5 14.5t17.5 32.5q0 15 -12 24.5t-34 9.5h-30l42 85
q-33 9 -51 34.5t-18 66.5q0 18 5 45l62 309h-76l10 53h76l27 134h67l-27 -134h169l-10 -53h-170z" />
    <glyph glyph-name="Tcaron" unicode="&#x164;" horiz-adv-x="553" 
d="M629 700l-12 -64h-231l-128 -636h-69l128 636h-230l12 64h530zM478 895h69l-127 -125h-74l-78 125h69l55 -76z" />
    <glyph glyph-name="tcaron" unicode="&#x165;" horiz-adv-x="386" 
d="M161 153q-4 -19 -4 -37q0 -30 13.5 -43.5t41.5 -13.5q45 2 93 30l14 -54q-60 -36 -121 -38q-51 0 -80 27t-29 79q0 18 5 45l62 309h-76l10 53h76l27 134h67l-27 -134h169l-10 -53h-170zM361 742h64l-49 -162h-46z" />
    <glyph glyph-name="Tbar" unicode="&#x166;" horiz-adv-x="553" 
d="M617 636h-231l-55 -275h156l-8 -44h-157l-64 -317h-69l64 317h-160l8 44h161l55 275h-230l12 64h530z" />
    <glyph glyph-name="tbar" unicode="&#x167;" horiz-adv-x="385" 
d="M223 457l-27 -132h169l-10 -53h-170l-23 -117q-4 -19 -4 -37q0 -59 57 -59q45 2 91 29l12 -52q-61 -37 -124 -39q-50 0 -78 26t-28 78q0 18 5 45l25 126h-75l10 53h76l26 132h-75l10 53h76l27 134h67l-27 -134h169l-10 -53h-169z" />
    <glyph glyph-name="Utilde" unicode="&#x168;" horiz-adv-x="769" 
d="M681 287q-28 -138 -115.5 -214t-223.5 -76q-118 0 -184 57.5t-66 161.5q0 36 7 71l83 413h68l-82 -413q-6 -31 -6 -59q0 -80 49.5 -124t138.5 -44q103 0 171 59.5t91 167.5l82 413h69zM617 795q-25 -30 -63 -30q-20 0 -35 8t-35 24q-16 13 -26 19t-22 6
q-19 0 -31.5 -14.5t-17.5 -38.5h-48q9 47 33 77t62 30q21 0 36.5 -8.5t34.5 -24.5q18 -13 27 -18.5t20 -5.5q20 0 33.5 14.5t17.5 38.5h49q-10 -47 -35 -77z" />
    <glyph glyph-name="utilde" unicode="&#x169;" horiz-adv-x="656" 
d="M114.5 38.5q-48.5 42.5 -48.5 118.5q0 27 6 55l62 312h68l-61 -305q-4 -20 -4 -42q0 -57 34.5 -88.5t98.5 -31.5q81 1 140 51.5t77 137.5l55 278h67l-103 -524h-68l22 110q-35 -55 -88.5 -84t-121.5 -30q-87 0 -135.5 42.5zM531 646q-25 -30 -63 -30q-20 0 -35 8t-35 24
q-16 13 -26 19t-22 6q-19 0 -31.5 -14.5t-17.5 -38.5h-48q9 47 33 77t62 30q21 0 36.5 -8.5t34.5 -24.5q18 -13 27 -18.5t20 -5.5q20 0 33.5 14.5t17.5 38.5h49q-10 -47 -35 -77z" />
    <glyph glyph-name="Umacron" unicode="&#x16a;" horiz-adv-x="769" 
d="M681 287q-28 -138 -115.5 -214t-223.5 -76q-118 0 -184 57.5t-66 161.5q0 36 7 71l83 413h68l-82 -413q-6 -31 -6 -59q0 -80 49.5 -124t138.5 -44q103 0 171 59.5t91 167.5l82 413h69zM342 821h306l-9 -46h-306z" />
    <glyph glyph-name="umacron" unicode="&#x16b;" horiz-adv-x="656" 
d="M114.5 38.5q-48.5 42.5 -48.5 118.5q0 27 6 55l62 312h68l-61 -305q-4 -20 -4 -42q0 -57 34.5 -88.5t98.5 -31.5q81 1 140 51.5t77 137.5l55 278h67l-103 -524h-68l22 110q-35 -55 -88.5 -84t-121.5 -30q-87 0 -135.5 42.5zM276 698h276l-9 -47h-276z" />
    <glyph glyph-name="Ubreve" unicode="&#x16c;" horiz-adv-x="769" 
d="M681 287q-28 -138 -115.5 -214t-223.5 -76q-118 0 -184 57.5t-66 161.5q0 36 7 71l83 413h68l-82 -413q-6 -31 -6 -59q0 -80 49.5 -124t138.5 -44q103 0 171 59.5t91 167.5l82 413h69zM434 876q0 -28 16.5 -45.5t43.5 -17.5q31 0 56 22t33 54h49q-12 -54 -53.5 -89
t-92.5 -35q-46 0 -74 28t-28 73q0 7 2 23h49q-1 -4 -1 -13z" />
    <glyph glyph-name="ubreve" unicode="&#x16d;" horiz-adv-x="656" 
d="M114.5 38.5q-48.5 42.5 -48.5 118.5q0 27 6 55l62 312h68l-61 -305q-4 -20 -4 -42q0 -57 34.5 -88.5t98.5 -31.5q81 1 140 51.5t77 137.5l55 278h67l-103 -524h-68l22 110q-35 -55 -88.5 -84t-121.5 -30q-87 0 -135.5 42.5zM347 725q0 -28 16.5 -45.5t43.5 -17.5
q31 0 56 22t33 54h49q-12 -54 -53.5 -89t-92.5 -35q-46 0 -74 28t-28 73q0 7 2 23h49q-1 -4 -1 -13z" />
    <glyph glyph-name="Uring" unicode="&#x16e;" horiz-adv-x="769" 
d="M681 287q-28 -138 -115.5 -214t-223.5 -76q-118 0 -184 57.5t-66 161.5q0 36 7 71l83 413h68l-82 -413q-6 -31 -6 -59q0 -80 49.5 -124t138.5 -44q103 0 171 59.5t91 167.5l82 413h69zM574.5 925q25.5 -26 25.5 -63q0 -28 -16 -53.5t-42 -40.5t-55 -15q-38 0 -63.5 25.5
t-25.5 61.5q0 29 16 54.5t42 41t55 15.5q38 0 63.5 -26zM459.5 890q-20.5 -20 -20.5 -45q0 -22 15 -37t38 -15q27 0 48 19.5t21 45.5q0 21 -15.5 36.5t-39.5 15.5q-26 0 -46.5 -20z" />
    <glyph glyph-name="uring" unicode="&#x16f;" horiz-adv-x="656" 
d="M114.5 38.5q-48.5 42.5 -48.5 118.5q0 27 6 55l62 312h68l-61 -305q-4 -20 -4 -42q0 -57 34.5 -88.5t98.5 -31.5q81 1 140 51.5t77 137.5l55 278h67l-103 -524h-68l22 110q-35 -55 -88.5 -84t-121.5 -30q-87 0 -135.5 42.5zM482.5 749q25.5 -26 25.5 -63q0 -28 -16 -53.5
t-42 -40.5t-55 -15q-38 0 -63.5 25.5t-25.5 61.5q0 29 16 54.5t42 41t55 15.5q38 0 63.5 -26zM367.5 714q-20.5 -20 -20.5 -45q0 -22 15 -37t38 -15q27 0 48 19.5t21 45.5q0 21 -15.5 36.5t-39.5 15.5q-26 0 -46.5 -20z" />
    <glyph glyph-name="Uhungarumlaut" unicode="&#x170;" horiz-adv-x="769" 
d="M681 287q-28 -138 -115.5 -214t-223.5 -76q-118 0 -184 57.5t-66 161.5q0 36 7 71l83 413h68l-82 -413q-6 -31 -6 -59q0 -80 49.5 -124t138.5 -44q103 0 171 59.5t91 167.5l82 413h69zM467 901l53 -28l-95 -106l-51 7zM609 901l53 -28l-95 -106l-51 7z" />
    <glyph glyph-name="uhungarumlaut" unicode="&#x171;" horiz-adv-x="656" 
d="M114.5 38.5q-48.5 42.5 -48.5 118.5q0 27 6 55l62 312h68l-61 -305q-4 -20 -4 -42q0 -57 34.5 -88.5t98.5 -31.5q81 1 140 51.5t77 137.5l55 278h67l-103 -524h-68l22 110q-35 -55 -88.5 -84t-121.5 -30q-87 0 -135.5 42.5zM378 751l53 -28l-95 -106l-51 7zM520 751
l53 -28l-95 -106l-51 7z" />
    <glyph glyph-name="Uogonek" unicode="&#x172;" horiz-adv-x="769" 
d="M763 700l-82 -413q-17 -85 -57.5 -147t-101.5 -98q-62 -45 -99.5 -91.5t-37.5 -80.5q0 -16 8.5 -24t23.5 -8q24 0 49 14l9 -46q-42 -21 -82 -21q-34 0 -53.5 19t-19.5 53q0 67 91 146q-33 -6 -69 -6q-118 0 -184 57.5t-66 161.5q0 36 7 71l83 413h68l-82 -413
q-6 -31 -6 -59q0 -80 49.5 -124t138.5 -44q103 0 171 59.5t91 167.5l82 413h69z" />
    <glyph glyph-name="uogonek" unicode="&#x173;" horiz-adv-x="656" 
d="M406.5 -72q-29.5 -29 -29.5 -59q0 -15 9 -23t23 -8q25 0 49 14l10 -46q-42 -21 -82 -21q-35 0 -55 17t-20 49q0 40 31 78.5t98 79.5l20 101q-35 -55 -88.5 -84t-121.5 -30q-87 0 -135.5 42.5t-48.5 118.5q0 27 6 55l62 312h68l-61 -305q-4 -20 -4 -42q0 -57 34.5 -88.5
t98.5 -31.5q81 1 140 51.5t77 137.5l55 278h67l-103 -523l1 -1q-71 -43 -100.5 -72z" />
    <glyph glyph-name="Wcircumflex" unicode="&#x174;" horiz-adv-x="1012" 
d="M1027 700h72l-351 -700h-71l-94 611l-299 -611h-71l-119 700h75l94 -626l300 625l69 1l95 -626zM699 769h-69l-55 76l-86 -76h-69l127 125h74z" />
    <glyph glyph-name="wcircumflex" unicode="&#x175;" horiz-adv-x="856" 
d="M911 524l-300 -524h-71l-69 443l-251 -443h-70l-92 524h70l70 -457l250 457h72l68 -457l252 457h71zM638 619h-69l-55 76l-86 -76h-69l127 125h74z" />
    <glyph glyph-name="Ycircumflex" unicode="&#x176;" horiz-adv-x="622" 
d="M704 700l-343 -449l-41 -251h-69l41 250l-199 450h72l172 -378l295 378h72zM552 769h-69l-55 76l-86 -76h-69l127 125h74z" />
    <glyph glyph-name="ycircumflex" unicode="&#x177;" horiz-adv-x="494" 
d="M549 524l-362 -602q-35 -59 -80 -89t-94 -30q-61 0 -105 38l36 50q28 -23 69 -23q67 0 122 84l33 51l-113 521h70l89 -451l264 451h71zM458 619h-69l-55 76l-86 -76h-69l127 125h74z" />
    <glyph glyph-name="Ydieresis" unicode="&#x178;" horiz-adv-x="622" 
d="M704 700l-343 -449l-41 -251h-69l41 250l-199 450h72l172 -378l295 378h72zM373.5 845.5q9.5 -10.5 9.5 -26.5q0 -21 -16 -36.5t-36 -15.5q-16 0 -26 10.5t-10 26.5q0 21 16 36.5t37 15.5q16 0 25.5 -10.5zM537.5 845.5q9.5 -10.5 9.5 -26.5q0 -21 -16 -36.5t-36 -15.5
q-16 0 -26 10.5t-10 26.5q0 21 16 36.5t37 15.5q16 0 25.5 -10.5z" />
    <glyph glyph-name="Zacute" unicode="&#x179;" horiz-adv-x="669" 
d="M683 700l-8 -55l-571 -582h478l-10 -63h-569l9 54l570 582h-460l10 64h551zM497 898l69 -31l-126 -100l-60 7z" />
    <glyph glyph-name="zacute" unicode="&#x17a;" horiz-adv-x="524" 
d="M524 523l-9 -51l-421 -416h344l-11 -57l-425 1l9 51l421 416l-327 1l10 56zM409 748l69 -31l-126 -100l-60 7z" />
    <glyph glyph-name="Zdotaccent" unicode="&#x17b;" horiz-adv-x="669" 
d="M683 700l-8 -55l-571 -582h478l-10 -63h-569l9 54l570 582h-460l10 64h551zM468.5 851.5q10.5 -11.5 10.5 -28.5q0 -23 -17 -39.5t-40 -16.5q-16 0 -27 11.5t-11 28.5q0 23 17 39.5t40 16.5q17 0 27.5 -11.5z" />
    <glyph glyph-name="zdotaccent" unicode="&#x17c;" horiz-adv-x="524" 
d="M524 523l-9 -51l-421 -416h344l-11 -57l-425 1l9 51l421 416l-327 1l10 56zM381.5 711.5q10.5 -11.5 10.5 -28.5q0 -23 -17 -39.5t-40 -16.5q-16 0 -27 11.5t-11 28.5q0 23 17 39.5t40 16.5q17 0 27.5 -11.5z" />
    <glyph glyph-name="Zcaron" unicode="&#x17d;" horiz-adv-x="669" 
d="M683 700l-8 -55l-571 -582h478l-10 -63h-569l9 54l570 582h-460l10 64h551zM516 895h69l-127 -125h-74l-78 125h69l55 -76z" />
    <glyph glyph-name="zcaron" unicode="&#x17e;" horiz-adv-x="524" 
d="M524 523l-9 -51l-421 -416h344l-11 -57l-425 1l9 51l421 416l-327 1l10 56zM428 744h69l-127 -125h-74l-78 125h69l55 -76z" />
    <glyph glyph-name="uni018F" unicode="&#x18f;" horiz-adv-x="795" 
d="M613.5 662.5q73.5 -42.5 115 -116t41.5 -163.5q0 -105 -53 -194.5t-141.5 -142t-190.5 -52.5q-94 0 -167.5 43t-114.5 119t-41 172q0 12 2 38h639v15q0 72 -34.5 132t-93.5 94.5t-131 34.5q-68 0 -130.5 -28.5t-108.5 -79.5l-45 48q59 59 131.5 91t157.5 32
q91 0 164.5 -42.5zM523 88q63 31 108.5 87t62.5 128h-561q3 -69 37 -125.5t92 -88.5t130 -32q68 0 131 31z" />
    <glyph glyph-name="florin" unicode="&#x192;" horiz-adv-x="431" 
d="M312 663.5q-31 -30.5 -41 -81.5l-23 -119h153l-9 -52h-154l-86 -448q-15 -76 -55.5 -118t-104.5 -42q-25 0 -52 11t-46 27l25 49q13 -13 32.5 -21t36.5 -8q76 0 98 112l84 438h-66l9 52h67l25 130q14 73 62 116t113 43q30 0 60.5 -10.5t52.5 -27.5l-30 -49q-16 13 -37 21
t-40 8q-43 0 -74 -30.5z" />
    <glyph glyph-name="Ohorn" unicode="&#x1a0;" horiz-adv-x="879" 
d="M767.5 514.5q26.5 -61.5 26.5 -131.5q0 -104 -55 -193.5t-147.5 -142.5t-198.5 -53q-94 0 -169.5 43t-118.5 117t-43 164q0 105 55 194t147.5 141t198.5 52q85 0 157 -36q22 -6 40 -6q38 0 63.5 30t25.5 68q0 22 -11 44l61 22q12 -31 12 -61q0 -53 -33 -93.5t-86 -52.5
q49 -44 75.5 -105.5zM688 512q-35 60 -95.5 95t-134.5 35q-85 0 -160 -43.5t-120.5 -117t-45.5 -159.5q0 -73 35 -134t96.5 -96t135.5 -35q84 0 159 44t120 118t45 160q0 73 -35 133z" />
    <glyph glyph-name="ohorn" unicode="&#x1a1;" horiz-adv-x="621" 
d="M654 591q0 -55 -36 -96.5t-92 -51.5q51 -62 51 -155q0 -83 -38.5 -149t-105.5 -103.5t-149 -37.5q-71 0 -125 30.5t-84 84.5t-30 124q0 83 38.5 149t105 103.5t148.5 37.5q77 0 133 -35q20 -4 33 -4q38 0 63.5 30t25.5 68q0 22 -11 44l61 22q12 -31 12 -61zM401 85
q50 29 78.5 81t28.5 118q0 82 -48.5 133t-128.5 51q-61 0 -111 -29.5t-78.5 -81.5t-28.5 -117q0 -82 48.5 -133t128.5 -51q61 0 111 29z" />
    <glyph glyph-name="Uhorn" unicode="&#x1af;" horiz-adv-x="827" 
d="M870 784q0 -51 -31 -86t-85 -42l-73 -369q-28 -138 -115.5 -214t-223.5 -76q-118 0 -184 57.5t-66 161.5q0 36 7 71l83 413h68l-82 -413q-6 -31 -6 -59q0 -80 49.5 -124t138.5 -44q103 0 171 59.5t91 167.5l82 413h57q30 4 46 23t16 47q0 18 -6 36l57 21q6 -22 6 -43z
" />
    <glyph glyph-name="uhorn" unicode="&#x1b0;" horiz-adv-x="656" 
d="M716 609q0 -51 -30.5 -85.5t-84.5 -42.5l-95 -481h-68l22 110q-35 -55 -88.5 -84t-121.5 -30q-87 0 -135.5 42.5t-48.5 118.5q0 27 6 55l62 312h68l-61 -305q-4 -20 -4 -42q0 -57 34.5 -88.5t98.5 -31.5q81 1 140 51.5t77 137.5l55 278h39q38 0 58 19.5t20 51.5
q0 18 -6 36l57 21q6 -22 6 -43z" />
    <glyph glyph-name="uni01C4" unicode="&#x1c4;" horiz-adv-x="1464" 
d="M623.5 661.5q70.5 -38.5 110 -106t39.5 -152.5q0 -11 -2 -37q-10 -101 -69 -185t-151 -132.5t-196 -48.5h-296l139 700h264q91 0 161.5 -38.5zM703 394q0 69 -32.5 124t-89.5 86.5t-129 31.5h-197l-115 -573h227q82 0 155.5 39.5t121.5 108t57 151.5q2 22 2 32zM1478 700
l-8 -55l-571 -582h478l-10 -63h-569l9 54l570 582h-460l10 64h551zM1311 895h69l-127 -125h-74l-78 125h69l55 -76z" />
    <glyph glyph-name="uni01C5" unicode="&#x1c5;" horiz-adv-x="1318" 
d="M623.5 661.5q70.5 -38.5 110 -106t39.5 -152.5q0 -11 -2 -37q-10 -101 -69 -185t-151 -132.5t-196 -48.5h-296l139 700h264q91 0 161.5 -38.5zM703 394q0 69 -32.5 124t-89.5 86.5t-129 31.5h-197l-115 -573h227q82 0 155.5 39.5t121.5 108t57 151.5q2 22 2 32zM1319 523
l-9 -51l-421 -416h344l-11 -57l-425 1l9 51l421 416l-327 1l10 56zM1223 744h69l-127 -125h-74l-78 125h69l55 -76z" />
    <glyph glyph-name="uni01C6" unicode="&#x1c6;" horiz-adv-x="1204" 
d="M151.5 25.5q-51.5 29.5 -80 82.5t-28.5 121q0 83 38 151.5t103 108t144 39.5t133.5 -39t72.5 -108l73 361h67l-148 -742h-67l21 101q-38 -50 -93 -77.5t-118 -27.5q-66 0 -117.5 29.5zM401 84.5q51 31.5 80.5 85.5t29.5 118q0 80 -49 130t-128 50q-61 0 -112 -31.5
t-81 -85.5t-30 -118q0 -80 49.5 -130t129.5 -50q60 0 111 31.5zM1205 523l-9 -51l-421 -416h344l-11 -57l-425 1l9 51l421 416l-327 1l10 56zM1109 744h69l-127 -125h-74l-78 125h69l55 -76z" />
    <glyph glyph-name="uni01C7" unicode="&#x1c7;" horiz-adv-x="992" 
d="M139 63h308l-12 -63h-377l140 700h69zM986 700l-98 -493q-20 -100 -82.5 -155t-154.5 -55q-56 0 -100 25.5t-71 73.5l46 53q24 -41 59.5 -62.5t77.5 -21.5q61 0 101.5 37t54.5 106l86 428h-252l12 64h321z" />
    <glyph glyph-name="uni01C8" unicode="&#x1c8;" horiz-adv-x="769" 
d="M139 63h308l-12 -63h-377l140 700h69zM437 -138q43 -1 72.5 31t41.5 91l108 540h67l-110 -554q-16 -82 -59 -124t-108 -42q-39 0 -78 17l22 50q16 -7 44 -9zM756.5 711.5q10.5 -11.5 10.5 -28.5q0 -23 -17 -39.5t-40 -16.5q-16 0 -27 11.5t-11 28.5q0 23 17 39.5t40 16.5
q17 0 27.5 -11.5z" />
    <glyph glyph-name="uni01C9" unicode="&#x1c9;" horiz-adv-x="529" 
d="M266 742l-148 -742h-67l148 742h67zM197 -138q43 -1 72.5 31t41.5 91l108 540h67l-110 -554q-16 -82 -59 -124t-108 -42q-39 0 -78 17l22 50q16 -7 44 -9zM516.5 711.5q10.5 -11.5 10.5 -28.5q0 -23 -17 -39.5t-40 -16.5q-16 0 -27 11.5t-11 28.5q0 23 17 39.5t40 16.5
q17 0 27.5 -11.5z" />
    <glyph glyph-name="uni01CA" unicode="&#x1ca;" horiz-adv-x="1275" 
d="M705 700h68l-140 -700h-73l-314 592l-119 -592h-69l140 700h73l314 -593zM1269 700l-98 -493q-20 -100 -82.5 -155t-154.5 -55q-56 0 -100 25.5t-71 73.5l46 53q24 -41 59.5 -62.5t77.5 -21.5q61 0 101.5 37t54.5 106l86 428h-252l12 64h321z" />
    <glyph glyph-name="uni01CB" unicode="&#x1cb;" horiz-adv-x="1037" 
d="M675.5 646q54.5 -54 54.5 -144q0 -28 -6 -58l-89 -444h-70l87 431q5 27 5 47q0 70 -44 112.5t-119 42.5q-66 0 -124.5 -28.5t-100.5 -78t-59 -110.5l-83 -416h-69l140 700h69l-29 -143q48 65 125 104t165 39q93 0 147.5 -54zM705 -138q43 -1 72.5 31t41.5 91l108 540h67
l-110 -554q-16 -82 -59 -124t-108 -42q-39 0 -78 17l22 50q16 -7 44 -9zM1024.5 711.5q10.5 -11.5 10.5 -28.5q0 -23 -17 -39.5t-40 -16.5q-16 0 -27 11.5t-11 28.5q0 23 17 39.5t40 16.5q17 0 27.5 -11.5z" />
    <glyph glyph-name="uni01CC" unicode="&#x1cc;" horiz-adv-x="912" 
d="M541.5 485.5q48.5 -42.5 48.5 -118.5q0 -26 -6 -55l-62 -312h-68l61 305q4 20 4 42q0 57 -34.5 88.5t-98.5 31.5q-81 -1 -140 -51.5t-77 -137.5l-55 -278h-67l103 524h68l-22 -110q35 55 88.5 84t121.5 30q87 0 135.5 -42.5zM580 -138q43 -1 72.5 31t41.5 91l108 540h67
l-110 -554q-16 -82 -59 -124t-108 -42q-39 0 -78 17l22 50q16 -7 44 -9zM899.5 711.5q10.5 -11.5 10.5 -28.5q0 -23 -17 -39.5t-40 -16.5q-16 0 -27 11.5t-11 28.5q0 23 17 39.5t40 16.5q17 0 27.5 -11.5z" />
    <glyph glyph-name="Gcaron" unicode="&#x1e6;" horiz-adv-x="769" 
d="M633 342h62l-51 -256q-122 -92 -253 -92q-93 0 -168.5 43t-118 117t-42.5 164q0 104 55 193t148 141.5t200 52.5q71 0 135.5 -25t109.5 -70l-45 -49q-38 39 -92 60.5t-113 21.5q-87 0 -162.5 -43.5t-120.5 -117.5t-45 -161q0 -74 35 -134t96.5 -95t137.5 -35q97 0 189 62
zM562 895h69l-127 -125h-74l-78 125h69l55 -76z" />
    <glyph glyph-name="gcaron" unicode="&#x1e7;" horiz-adv-x="636" 
d="M103 -175q-53 20 -101 61l34 45q70 -66 180 -69q89 0 145.5 41.5t73.5 119.5l22 102q-36 -47 -87.5 -72.5t-109.5 -25.5q-62 0 -110.5 28t-75.5 78t-27 114q0 78 35.5 142.5t97 101.5t135.5 37q75 0 126 -36t68 -101l28 133h67l-102 -505q-21 -103 -94 -158.5t-188 -55.5
q-64 0 -117 20zM385.5 113q47.5 29 75 79t27.5 109q0 75 -46 121t-120 46q-57 0 -104.5 -29t-75 -79t-27.5 -109q0 -75 46 -121t120 -46q57 0 104.5 29zM474 744h69l-127 -125h-74l-78 125h69l55 -76z" />
    <glyph glyph-name="uni01EA" unicode="&#x1ea;" horiz-adv-x="819" 
d="M632.5 663q75.5 -42 118.5 -115.5t43 -162.5q0 -105 -55 -195t-147 -143q-64 -46 -104 -94t-40 -83q0 -16 8.5 -24t23.5 -8q24 0 49 14l9 -46q-42 -21 -82 -21q-34 0 -53.5 19t-19.5 53q0 67 91 145q-43 -8 -81 -8q-94 0 -169.5 43t-118.5 117t-43 164q0 105 55 194
t147.5 141t198.5 52q94 0 169.5 -42zM688 512q-35 60 -95.5 95t-134.5 35q-85 0 -160 -43.5t-120.5 -117t-45.5 -159.5q0 -73 35 -134t96.5 -96t135.5 -35q84 0 159 44t120 118t45 160q0 73 -35 133z" />
    <glyph glyph-name="uni01EB" unicode="&#x1eb;" horiz-adv-x="621" 
d="M347 -47.5q-39 -47.5 -39 -82.5q0 -16 8.5 -24t23.5 -8q24 0 49 14l9 -46q-42 -21 -82 -21q-34 0 -53.5 19t-19.5 53q0 67 90 145q-21 -4 -49 -4q-71 0 -125 30.5t-84 84.5t-30 124q0 83 38.5 149t105 103.5t148.5 37.5q71 0 125.5 -30.5t84.5 -84.5t30 -124
q0 -77 -34 -140.5t-93 -101.5q-64 -46 -103 -93.5zM161.5 107q48.5 -51 128.5 -51q61 0 111 29t78.5 81t28.5 118q0 82 -48.5 133t-128.5 51q-61 0 -111 -29.5t-78.5 -81.5t-28.5 -117q0 -82 48.5 -133z" />
    <glyph glyph-name="Aringacute" unicode="&#x1fa;" horiz-adv-x="712" 
d="M580 0l-52 186h-389l-113 -186h-73l430 700h72l199 -700h-74zM176 248h335l-106 379zM509.5 927q25.5 -26 25.5 -63q0 -28 -16 -53.5t-42 -40.5t-55 -15q-38 0 -63.5 25.5t-25.5 61.5q0 29 16 54.5t42 41t55 15.5q38 0 63.5 -26zM394.5 892q-20.5 -20 -20.5 -45
q0 -22 15 -37t38 -15q27 0 48 19.5t21 45.5q0 21 -15.5 36.5t-39.5 15.5q-26 0 -46.5 -20zM538 1106l57 -40l-141 -77l-55 17z" />
    <glyph glyph-name="aringacute" unicode="&#x1fb;" horiz-adv-x="676" 
d="M151.5 25.5q-51.5 29.5 -80 82.5t-28.5 121q0 83 38 151.5t103 108t144 39.5t133.5 -39t72.5 -108l29 143h67l-104 -524h-67l21 101q-38 -50 -93 -77.5t-118 -27.5q-66 0 -117.5 29.5zM401 84.5q51 31.5 80.5 85.5t29.5 118q0 80 -49 130t-128 50q-61 0 -112 -31.5
t-81 -85.5t-30 -118q0 -80 49.5 -130t129.5 -50q60 0 111 31.5zM461.5 751q25.5 -26 25.5 -63q0 -28 -16 -53.5t-42 -40.5t-55 -15q-38 0 -63.5 25.5t-25.5 61.5q0 29 16 54.5t42 41t55 15.5q38 0 63.5 -26zM346.5 716q-20.5 -20 -20.5 -45q0 -22 15 -37t38 -15
q27 0 48 19.5t21 45.5q0 21 -15.5 36.5t-39.5 15.5q-26 0 -46.5 -20zM490 930l57 -40l-141 -77l-55 17z" />
    <glyph glyph-name="AEacute" unicode="&#x1fc;" horiz-adv-x="1019" 
d="M1023 636h-399l-51 -249h357l-12 -63h-357l-53 -261h412l-12 -63h-481l40 198h-284l-155 -198h-75l554 700h528zM227 254h251l77 387h-24zM789 898l69 -31l-126 -100l-60 7z" />
    <glyph glyph-name="aeacute" unicode="&#x1fd;" horiz-adv-x="967" 
d="M72.5 36q-45.5 39 -45.5 103q0 72 55.5 113t154.5 41h178l4 49l1 15q0 55 -34.5 84t-100.5 29q-86 0 -185 -63l-18 50q115 70 216 70q74 0 119.5 -30.5t56.5 -86.5q37 56 94.5 86.5t126.5 30.5q70 0 122.5 -30t81 -84.5t28.5 -125.5q0 -11 -2 -37h-445l-2 -22
q-4 -46 19.5 -86t67 -64t94.5 -24q50 0 94.5 18t79.5 51l36 -40q-43 -42 -97.5 -63.5t-117.5 -21.5q-79 0 -138 39t-83 104q-76 -144 -239 -144q-76 0 -121.5 39zM861 292q3 83 -42.5 133t-123.5 50q-79 0 -138 -51t-74 -132h378zM323 79q48 31 82 98l7 75h-166
q-73 1 -114 -28t-41 -81q0 -43 31.5 -69t84.5 -26q68 0 116 31zM590 748l69 -31l-126 -100l-60 7z" />
    <glyph glyph-name="Oslashacute" unicode="&#x1fe;" horiz-adv-x="819" 
d="M760.5 530q33.5 -67 33.5 -146q0 -105 -55 -194.5t-147.5 -142.5t-198.5 -53q-95 0 -173 45l-69 -94h-61l90 121q-56 45 -87 110t-31 142q0 105 55 194t147.5 141t198.5 52q87 0 161 -38l65 88h62l-84 -114q60 -44 93.5 -111zM155.5 211q23.5 -51 65.5 -89l362 490
q-58 30 -125 30q-85 0 -160 -43.5t-120.5 -117t-45.5 -159.5q0 -60 23.5 -111zM697 495q-26 54 -72 90l-364 -492q63 -36 138 -36q84 0 159 44t120 117.5t45 159.5q0 63 -26 117zM572 898l69 -31l-126 -100l-60 7z" />
    <glyph glyph-name="oslashacute" unicode="&#x1ff;" horiz-adv-x="621" 
d="M553.5 399.5q23.5 -49.5 23.5 -111.5q0 -83 -38.5 -149t-105.5 -103.5t-149 -37.5q-65 0 -117 26l-89 -127h-52l105 150q-41 32 -63.5 81t-22.5 109q0 83 38.5 149t105 103.5t148.5 37.5q62 0 114 -25l88 125h51l-103 -146q43 -32 66.5 -81.5zM124 159q15 -37 42 -63
l250 356q-38 19 -84 19q-62 0 -113 -29.5t-80.5 -82.5t-29.5 -119q0 -44 15 -81zM402 81.5q51 29.5 80.5 82.5t29.5 120q0 46 -16 83t-45 62l-250 -357q38 -20 88 -20q62 0 113 29.5zM442 748l69 -31l-126 -100l-60 7z" />
    <glyph glyph-name="uni0200" unicode="&#x200;" horiz-adv-x="712" 
d="M580 0l-52 186h-389l-113 -186h-73l430 700h72l199 -700h-74zM176 248h335l-106 379zM340 899l64 -127l-55 -7l-72 106zM482 899l64 -127l-55 -7l-72 106z" />
    <glyph glyph-name="uni0201" unicode="&#x201;" horiz-adv-x="676" 
d="M151.5 25.5q-51.5 29.5 -80 82.5t-28.5 121q0 83 38 151.5t103 108t144 39.5t133.5 -39t72.5 -108l29 143h67l-104 -524h-67l21 101q-38 -50 -93 -77.5t-118 -27.5q-66 0 -117.5 29.5zM401 84.5q51 31.5 80.5 85.5t29.5 118q0 80 -49 130t-128 50q-61 0 -112 -31.5
t-81 -85.5t-30 -118q0 -80 49.5 -130t129.5 -50q60 0 111 31.5zM295 751l64 -127l-55 -7l-72 106zM437 751l64 -127l-55 -7l-72 106z" />
    <glyph glyph-name="uni0202" unicode="&#x202;" horiz-adv-x="712" 
d="M580 0l-52 186h-389l-113 -186h-73l430 700h72l199 -700h-74zM176 248h335l-106 379zM508 782q0 28 -16.5 45.5t-43.5 17.5q-31 0 -56 -22t-33 -54h-49q12 54 53.5 89t92.5 35q46 0 74 -28t28 -73q0 -7 -2 -23h-49q1 4 1 13z" />
    <glyph glyph-name="uni0203" unicode="&#x203;" horiz-adv-x="676" 
d="M151.5 25.5q-51.5 29.5 -80 82.5t-28.5 121q0 83 38 151.5t103 108t144 39.5t133.5 -39t72.5 -108l29 143h67l-104 -524h-67l21 101q-38 -50 -93 -77.5t-118 -27.5q-66 0 -117.5 29.5zM401 84.5q51 31.5 80.5 85.5t29.5 118q0 80 -49 130t-128 50q-61 0 -112 -31.5
t-81 -85.5t-30 -118q0 -80 49.5 -130t129.5 -50q60 0 111 31.5zM464 627q0 28 -16.5 45.5t-43.5 17.5q-31 0 -56 -22t-33 -54h-49q12 54 53.5 89t92.5 35q46 0 74 -28t28 -73q0 -7 -2 -23h-49q1 4 1 13z" />
    <glyph glyph-name="uni0204" unicode="&#x204;" horiz-adv-x="650" 
d="M654 636h-400l-50 -249h357l-13 -63h-357l-52 -261h412l-12 -63h-481l140 700h468zM364 899l64 -127l-55 -7l-72 106zM506 899l64 -127l-55 -7l-72 106z" />
    <glyph glyph-name="uni0205" unicode="&#x205;" horiz-adv-x="599" 
d="M111 239v-3q0 -83 49.5 -133t132.5 -50q48 0 91 16t76 46l32 -44q-39 -36 -91 -55t-111 -19q-73 0 -128.5 30t-86 84t-30.5 125q0 82 38 148.5t104.5 104.5t146.5 38q104 0 164.5 -62t60.5 -166q0 -25 -5 -60h-443zM193.5 421q-59.5 -49 -76.5 -129h382q1 83 -42.5 130.5
t-122.5 47.5q-81 0 -140.5 -49zM250 754l64 -127l-55 -7l-72 106zM392 754l64 -127l-55 -7l-72 106z" />
    <glyph glyph-name="uni0206" unicode="&#x206;" horiz-adv-x="650" 
d="M654 636h-400l-50 -249h357l-13 -63h-357l-52 -261h412l-12 -63h-481l140 700h468zM532 782q0 28 -16.5 45.5t-43.5 17.5q-31 0 -56 -22t-33 -54h-49q12 54 53.5 89t92.5 35q46 0 74 -28t28 -73q0 -7 -2 -23h-49q1 4 1 13z" />
    <glyph glyph-name="uni0207" unicode="&#x207;" horiz-adv-x="599" 
d="M111 239v-3q0 -83 49.5 -133t132.5 -50q48 0 91 16t76 46l32 -44q-39 -36 -91 -55t-111 -19q-73 0 -128.5 30t-86 84t-30.5 125q0 82 38 148.5t104.5 104.5t146.5 38q104 0 164.5 -62t60.5 -166q0 -25 -5 -60h-443zM193.5 421q-59.5 -49 -76.5 -129h382q1 83 -42.5 130.5
t-122.5 47.5q-81 0 -140.5 -49zM419 630q0 28 -16.5 45.5t-43.5 17.5q-31 0 -56 -22t-33 -54h-49q12 54 53.5 89t92.5 35q46 0 74 -28t28 -73q0 -7 -2 -23h-49q1 4 1 13z" />
    <glyph glyph-name="uni0208" unicode="&#x208;" horiz-adv-x="289" 
d="M266 700l-140 -700h-69l140 700h69zM152 899l64 -127l-55 -7l-72 106zM294 899l64 -127l-55 -7l-72 106z" />
    <glyph glyph-name="uni0209" unicode="&#x209;" horiz-adv-x="263" 
d="M217 524l-104 -524h-67l104 524h67zM107 751l64 -127l-55 -7l-72 106zM249 751l64 -127l-55 -7l-72 106z" />
    <glyph glyph-name="uni020A" unicode="&#x20a;" horiz-adv-x="289" 
d="M266 700l-140 -700h-69l140 700h69zM321 782q0 28 -16.5 45.5t-43.5 17.5q-31 0 -56 -22t-33 -54h-49q12 54 53.5 89t92.5 35q46 0 74 -28t28 -73q0 -7 -2 -23h-49q1 4 1 13z" />
    <glyph glyph-name="uni020B" unicode="&#x20b;" horiz-adv-x="263" 
d="M217 524l-104 -524h-67l104 524h67zM260 630q0 26 -12 42.5t-32 16.5q-25 0 -45.5 -21.5t-28.5 -53.5h-51q14 55 51 89t83 34q40 0 63.5 -26t23.5 -69q0 -18 -2 -28h-51q1 6 1 16z" />
    <glyph glyph-name="uni020C" unicode="&#x20c;" horiz-adv-x="819" 
d="M637.5 660q77.5 -45 119.5 -122.5t37 -171.5q-4 -101 -60.5 -186.5t-147 -135.5t-193.5 -50q-94 0 -169.5 43t-118.5 117t-43 164q0 105 55 194t147.5 141t198.5 52q97 0 174.5 -45zM298 598.5q-75 -43.5 -120.5 -117t-45.5 -159.5q0 -73 35 -134t96.5 -96t135.5 -35
q84 0 159 44t120 118t45 160q0 73 -35 133t-95.5 95t-134.5 35q-85 0 -160 -43.5zM383 899l64 -127l-55 -7l-72 106zM525 899l64 -127l-55 -7l-72 106z" />
    <glyph glyph-name="uni020D" unicode="&#x20d;" horiz-adv-x="621" 
d="M462.5 496.5q54.5 -30.5 84.5 -84.5t30 -124q0 -83 -38.5 -149t-105.5 -103.5t-149 -37.5q-71 0 -125 30.5t-84 84.5t-30 124q0 83 38.5 149t105 103.5t148.5 37.5q71 0 125.5 -30.5zM220 438.5q-50 -29.5 -78.5 -81.5t-28.5 -117q0 -82 48.5 -133t128.5 -51q61 0 111 29
t78.5 81t28.5 118q0 82 -48.5 133t-128.5 51q-61 0 -111 -29.5zM261 751l64 -127l-55 -7l-72 106zM403 751l64 -127l-55 -7l-72 106z" />
    <glyph glyph-name="uni020E" unicode="&#x20e;" horiz-adv-x="819" 
d="M637.5 660q77.5 -45 119.5 -122.5t37 -171.5q-4 -101 -60.5 -186.5t-147 -135.5t-193.5 -50q-94 0 -169.5 43t-118.5 117t-43 164q0 105 55 194t147.5 141t198.5 52q97 0 174.5 -45zM298 598.5q-75 -43.5 -120.5 -117t-45.5 -159.5q0 -73 35 -134t96.5 -96t135.5 -35
q84 0 159 44t120 118t45 160q0 73 -35 133t-95.5 95t-134.5 35q-85 0 -160 -43.5zM551 782q0 28 -16.5 45.5t-43.5 17.5q-31 0 -56 -22t-33 -54h-49q12 54 53.5 89t92.5 35q46 0 74 -28t28 -73q0 -7 -2 -23h-49q1 4 1 13z" />
    <glyph glyph-name="uni020F" unicode="&#x20f;" horiz-adv-x="621" 
d="M462.5 496.5q54.5 -30.5 84.5 -84.5t30 -124q0 -83 -38.5 -149t-105.5 -103.5t-149 -37.5q-71 0 -125 30.5t-84 84.5t-30 124q0 83 38.5 149t105 103.5t148.5 37.5q71 0 125.5 -30.5zM220 438.5q-50 -29.5 -78.5 -81.5t-28.5 -117q0 -82 48.5 -133t128.5 -51q61 0 111 29
t78.5 81t28.5 118q0 82 -48.5 133t-128.5 51q-61 0 -111 -29.5zM430 627q0 28 -16.5 45.5t-43.5 17.5q-31 0 -56 -22t-33 -54h-49q12 54 53.5 89t92.5 35q46 0 74 -28t28 -73q0 -7 -2 -23h-49q1 4 1 13z" />
    <glyph glyph-name="uni0210" unicode="&#x210;" horiz-adv-x="724" 
d="M636.5 337.5q-55.5 -71.5 -156.5 -97.5l119 -240h-80l-106 228q-32 -2 -49 -2h-192l-45 -226h-69l140 700h260q113 0 173.5 -49t60.5 -139q0 -103 -55.5 -174.5zM558 344.5q66 55.5 66 154.5q0 67 -46 102t-132 35h-192l-69 -347h191q116 0 182 55.5zM352 899l64 -127
l-55 -7l-72 106zM494 899l64 -127l-55 -7l-72 106z" />
    <glyph glyph-name="uni0211" unicode="&#x211;" horiz-adv-x="368" 
d="M286 495.5q54 30.5 121 31.5l-8 -65q-82 1 -143.5 -48.5t-86.5 -133.5l-56 -280h-67l104 524h68l-24 -117q38 58 92 88.5zM160 751l64 -127l-55 -7l-72 106zM302 751l64 -127l-55 -7l-72 106z" />
    <glyph glyph-name="uni0212" unicode="&#x212;" horiz-adv-x="724" 
d="M636.5 337.5q-55.5 -71.5 -156.5 -97.5l119 -240h-80l-106 228q-32 -2 -49 -2h-192l-45 -226h-69l140 700h260q113 0 173.5 -49t60.5 -139q0 -103 -55.5 -174.5zM558 344.5q66 55.5 66 154.5q0 67 -46 102t-132 35h-192l-69 -347h191q116 0 182 55.5zM520 782
q0 28 -16.5 45.5t-43.5 17.5q-31 0 -56 -22t-33 -54h-49q12 54 53.5 89t92.5 35q46 0 74 -28t28 -73q0 -7 -2 -23h-49q1 4 1 13z" />
    <glyph glyph-name="uni0213" unicode="&#x213;" horiz-adv-x="368" 
d="M286 495.5q54 30.5 121 31.5l-8 -65q-82 1 -143.5 -48.5t-86.5 -133.5l-56 -280h-67l104 524h68l-24 -117q38 58 92 88.5zM330 627q0 28 -16.5 45.5t-43.5 17.5q-31 0 -56 -22t-33 -54h-49q12 54 53.5 89t92.5 35q46 0 74 -28t28 -73q0 -7 -2 -23h-49q1 4 1 13z" />
    <glyph glyph-name="uni0214" unicode="&#x214;" horiz-adv-x="769" 
d="M681 287q-28 -138 -115.5 -214t-223.5 -76q-118 0 -184 57.5t-66 161.5q0 36 7 71l83 413h68l-82 -413q-6 -31 -6 -59q0 -80 49.5 -124t138.5 -44q103 0 171 59.5t91 167.5l82 413h69zM393 899l64 -127l-55 -7l-72 106zM535 899l64 -127l-55 -7l-72 106z" />
    <glyph glyph-name="uni0215" unicode="&#x215;" horiz-adv-x="656" 
d="M114.5 38.5q-48.5 42.5 -48.5 118.5q0 27 6 55l62 312h68l-61 -305q-4 -20 -4 -42q0 -57 34.5 -88.5t98.5 -31.5q81 1 140 51.5t77 137.5l55 278h67l-103 -524h-68l22 110q-35 -55 -88.5 -84t-121.5 -30q-87 0 -135.5 42.5zM304 751l64 -127l-55 -7l-72 106zM446 751
l64 -127l-55 -7l-72 106z" />
    <glyph glyph-name="uni0216" unicode="&#x216;" horiz-adv-x="769" 
d="M681 287q-28 -138 -115.5 -214t-223.5 -76q-118 0 -184 57.5t-66 161.5q0 36 7 71l83 413h68l-82 -413q-6 -31 -6 -59q0 -80 49.5 -124t138.5 -44q103 0 171 59.5t91 167.5l82 413h69zM561 782q0 28 -16.5 45.5t-43.5 17.5q-31 0 -56 -22t-33 -54h-49q12 54 53.5 89
t92.5 35q46 0 74 -28t28 -73q0 -7 -2 -23h-49q1 4 1 13z" />
    <glyph glyph-name="uni0217" unicode="&#x217;" horiz-adv-x="656" 
d="M114.5 38.5q-48.5 42.5 -48.5 118.5q0 27 6 55l62 312h68l-61 -305q-4 -20 -4 -42q0 -57 34.5 -88.5t98.5 -31.5q81 1 140 51.5t77 137.5l55 278h67l-103 -524h-68l22 110q-35 -55 -88.5 -84t-121.5 -30q-87 0 -135.5 42.5zM473 627q0 28 -16.5 45.5t-43.5 17.5
q-31 0 -56 -22t-33 -54h-49q12 54 53.5 89t92.5 35q46 0 74 -28t28 -73q0 -7 -2 -23h-49q1 4 1 13z" />
    <glyph glyph-name="Scommaaccent" unicode="&#x218;" horiz-adv-x="603" 
d="M467 691q56 -17 97 -46l-36 -60q-40 28 -89.5 42t-95.5 14q-73 0 -119.5 -28.5t-50.5 -76.5l-1 -14q0 -38 21.5 -62.5t52.5 -38.5t86 -32q63 -21 101.5 -39.5t65.5 -53t27 -89.5q0 -16 -1 -25q-5 -57 -41 -99.5t-95.5 -66t-133.5 -23.5q-73 0 -140.5 29t-113.5 77l39 59
q41 -47 101 -73t121 -26q86 0 137 36.5t51 98.5q0 39 -21.5 64t-54 39.5t-87.5 32.5q-63 20 -101 38t-64.5 52t-26.5 88q0 15 1 23q5 53 38.5 93t90.5 62t128 22q58 0 114 -17zM208 -61h66l-79 -156h-50z" />
    <glyph glyph-name="scommaaccent" unicode="&#x219;" horiz-adv-x="464" 
d="M85 19.5q-61 26.5 -94 70.5l34 45q31 -38 82 -61.5t106 -23.5q53 0 87.5 25.5t34.5 66.5q0 34 -28 54.5t-84 43.5q-46 19 -74.5 35t-48.5 42t-20 65q0 67 50.5 107.5t129.5 40.5q55 0 104.5 -17.5t83.5 -46.5l-34 -48q-32 25 -73.5 40t-82.5 15q-49 0 -80.5 -23
t-31.5 -61q0 -33 27 -52.5t84 -42.5q47 -19 76.5 -35t50 -43t20.5 -67q0 -70 -54 -113t-137 -43q-67 0 -128 26.5zM148 -61h66l-79 -156h-50z" />
    <glyph glyph-name="uni021A" unicode="&#x21a;" horiz-adv-x="553" 
d="M629 700l-12 -64h-231l-128 -636h-69l128 636h-230l12 64h530zM181 -61h66l-79 -156h-50z" />
    <glyph glyph-name="uni021B" unicode="&#x21b;" horiz-adv-x="386" 
d="M161 153q-4 -19 -4 -37q0 -30 13.5 -43.5t41.5 -13.5q45 2 93 30l14 -54q-60 -36 -121 -38q-51 0 -80 27t-29 79q0 18 5 45l62 309h-76l10 53h76l27 134h67l-27 -134h169l-10 -53h-170zM140 -61h66l-79 -156h-50z" />
    <glyph glyph-name="uni022A" unicode="&#x22a;" horiz-adv-x="819" 
d="M637.5 660q77.5 -45 119.5 -122.5t37 -171.5q-4 -101 -60.5 -186.5t-147 -135.5t-193.5 -50q-94 0 -169.5 43t-118.5 117t-43 164q0 105 55 194t147.5 141t198.5 52q97 0 174.5 -45zM298 598.5q-75 -43.5 -120.5 -117t-45.5 -159.5q0 -73 35 -134t96.5 -96t135.5 -35
q84 0 159 44t120 118t45 160q0 73 -35 133t-95.5 95t-134.5 35q-85 0 -160 -43.5zM444.5 844q9.5 -10 9.5 -26q0 -21 -15.5 -36t-35.5 -15q-16 0 -25.5 10.5t-9.5 26.5q0 21 15.5 35.5t36.5 14.5q15 0 24.5 -10zM595.5 844q9.5 -10 9.5 -26q0 -21 -15.5 -36t-35.5 -15
q-15 0 -25 11t-10 26q0 21 15.5 35.5t36.5 14.5q15 0 24.5 -10zM393 941h236l-9 -47h-236z" />
    <glyph glyph-name="uni022B" unicode="&#x22b;" horiz-adv-x="621" 
d="M462.5 496.5q54.5 -30.5 84.5 -84.5t30 -124q0 -83 -38.5 -149t-105.5 -103.5t-149 -37.5q-71 0 -125 30.5t-84 84.5t-30 124q0 83 38.5 149t105 103.5t148.5 37.5q71 0 125.5 -30.5zM220 438.5q-50 -29.5 -78.5 -81.5t-28.5 -117q0 -82 48.5 -133t128.5 -51q61 0 111 29
t78.5 81t28.5 118q0 82 -48.5 133t-128.5 51q-61 0 -111 -29.5zM321.5 688q9.5 -10 9.5 -26q0 -21 -15.5 -36t-35.5 -15q-16 0 -25.5 10.5t-9.5 26.5q0 21 15.5 35.5t36.5 14.5q15 0 24.5 -10zM472.5 688q9.5 -10 9.5 -26q0 -21 -15.5 -36t-35.5 -15q-15 0 -25 11t-10 26
q0 21 15.5 35.5t36.5 14.5q15 0 24.5 -10zM270 785h236l-9 -47h-236z" />
    <glyph glyph-name="uni022C" unicode="&#x22c;" horiz-adv-x="819" 
d="M637.5 660q77.5 -45 119.5 -122.5t37 -171.5q-4 -101 -60.5 -186.5t-147 -135.5t-193.5 -50q-94 0 -169.5 43t-118.5 117t-43 164q0 105 55 194t147.5 141t198.5 52q97 0 174.5 -45zM298 598.5q-75 -43.5 -120.5 -117t-45.5 -159.5q0 -73 35 -134t96.5 -96t135.5 -35
q84 0 159 44t120 118t45 160q0 73 -35 133t-95.5 95t-134.5 35q-85 0 -160 -43.5zM626.5 793q-24.5 -26 -62.5 -26q-21 0 -37 7.5t-35 21.5q-19 12 -28.5 17t-21.5 5q-40 0 -50 -48h-42q8 43 31.5 69t61.5 26q21 0 37 -7.5t35 -21.5q19 -12 28.5 -17t21.5 -5q20 0 33.5 12.5
t18.5 34.5h42q-8 -42 -32.5 -68zM414 949h236l-9 -47h-236z" />
    <glyph glyph-name="uni022D" unicode="&#x22d;" horiz-adv-x="621" 
d="M462.5 496.5q54.5 -30.5 84.5 -84.5t30 -124q0 -83 -38.5 -149t-105.5 -103.5t-149 -37.5q-71 0 -125 30.5t-84 84.5t-30 124q0 83 38.5 149t105 103.5t148.5 37.5q71 0 125.5 -30.5zM220 438.5q-50 -29.5 -78.5 -81.5t-28.5 -117q0 -82 48.5 -133t128.5 -51q61 0 111 29
t78.5 81t28.5 118q0 82 -48.5 133t-128.5 51q-61 0 -111 -29.5zM485.5 635q-24.5 -26 -62.5 -26q-21 0 -37 7.5t-35 21.5q-19 12 -28.5 17t-21.5 5q-40 0 -50 -48h-42q8 43 31.5 69t61.5 26q21 0 37 -7.5t35 -21.5q19 -12 28.5 -17t21.5 -5q20 0 33.5 12.5t18.5 34.5h42
q-8 -42 -32.5 -68zM273 791h236l-9 -47h-236z" />
    <glyph glyph-name="uni0230" unicode="&#x230;" horiz-adv-x="819" 
d="M637.5 660q77.5 -45 119.5 -122.5t37 -171.5q-4 -101 -60.5 -186.5t-147 -135.5t-193.5 -50q-94 0 -169.5 43t-118.5 117t-43 164q0 105 55 194t147.5 141t198.5 52q97 0 174.5 -45zM298 598.5q-75 -43.5 -120.5 -117t-45.5 -159.5q0 -73 35 -134t96.5 -96t135.5 -35
q84 0 159 44t120 118t45 160q0 73 -35 133t-95.5 95t-134.5 35q-85 0 -160 -43.5zM521.5 850.5q10.5 -10.5 10.5 -27.5q0 -22 -16.5 -37.5t-38.5 -15.5q-16 0 -26 11t-10 27q0 21 16.5 37t37.5 16q16 0 26.5 -10.5zM393 943h236l-9 -47h-236z" />
    <glyph glyph-name="uni0231" unicode="&#x231;" horiz-adv-x="621" 
d="M462.5 496.5q54.5 -30.5 84.5 -84.5t30 -124q0 -83 -38.5 -149t-105.5 -103.5t-149 -37.5q-71 0 -125 30.5t-84 84.5t-30 124q0 83 38.5 149t105 103.5t148.5 37.5q71 0 125.5 -30.5zM220 438.5q-50 -29.5 -78.5 -81.5t-28.5 -117q0 -82 48.5 -133t128.5 -51q61 0 111 29
t78.5 81t28.5 118q0 82 -48.5 133t-128.5 51q-61 0 -111 -29.5zM403.5 692.5q10.5 -10.5 10.5 -27.5q0 -22 -16.5 -37.5t-38.5 -15.5q-16 0 -26 11t-10 27q0 21 16.5 37t37.5 16q16 0 26.5 -10.5zM275 785h236l-9 -47h-236z" />
    <glyph glyph-name="uni0232" unicode="&#x232;" horiz-adv-x="622" 
d="M704 700l-343 -449l-41 -251h-69l41 250l-199 450h72l172 -378l295 378h72zM269 821h306l-9 -46h-306z" />
    <glyph glyph-name="uni0233" unicode="&#x233;" horiz-adv-x="494" 
d="M549 524l-362 -602q-35 -59 -80 -89t-94 -30q-61 0 -105 38l36 50q28 -23 69 -23q67 0 122 84l33 51l-113 521h70l89 -451l264 451h71zM195 698h276l-9 -47h-276z" />
    <glyph glyph-name="uni0237" unicode="&#x237;" horiz-adv-x="256" 
d="M-76 -138q43 -1 72.5 31t41.5 91l108 540h67l-110 -554q-16 -82 -59 -124t-108 -42q-39 0 -78 17l22 50q16 -7 44 -9z" />
    <glyph glyph-name="uni0259" unicode="&#x259;" horiz-adv-x="601" 
d="M440.5 497q55.5 -30 86 -84.5t30.5 -125.5q0 -82 -38.5 -148t-104.5 -104t-147 -38q-103 0 -163.5 62t-60.5 165q0 25 5 60h442v3q0 83 -49.5 133t-131.5 50q-48 0 -91.5 -16t-75.5 -45l-33 44q40 36 92 55t111 19q73 0 128.5 -30zM408 103q59 49 76 128h-381
q-2 -82 41.5 -129.5t123.5 -47.5q81 0 140 49z" />
    <glyph glyph-name="uni02BB" unicode="&#x2bb;" horiz-adv-x="340" 
d="M248 512l-63 15l52 173h47z" />
    <glyph glyph-name="uni02BC" unicode="&#x2bc;" horiz-adv-x="106" 
d="M114 700h54l-61 -260h-46z" />
    <glyph glyph-name="uni02BE" unicode="&#x2be;" horiz-adv-x="337" 
d="M180 600q35 0 63 25.5t28 59.5q0 28 -21 48t-51 20l4 36q44 0 73.5 -29t29.5 -71q0 -33 -18.5 -61.5t-48.5 -46t-63 -17.5z" />
    <glyph glyph-name="uni02BF" unicode="&#x2bf;" horiz-adv-x="340" 
d="M287 600q-29 0 -47.5 19t-18.5 46q0 35 29.5 61.5t66.5 26.5l7 36q-34 0 -66.5 -18.5t-52.5 -48.5t-20 -63q0 -40 27.5 -67.5t68.5 -27.5z" />
    <glyph glyph-name="circumflex" unicode="&#x2c6;" horiz-adv-x="432" 
d="M437 619h-69l-55 76l-86 -76h-69l127 125h74z" />
    <glyph glyph-name="caron" unicode="&#x2c7;" horiz-adv-x="433" 
d="M370 744h69l-127 -125h-74l-78 125h69l55 -76z" />
    <glyph glyph-name="uni02C8" unicode="&#x2c8;" horiz-adv-x="336" 
d="M195 522l34 178h52l-35 -178h-51z" />
    <glyph glyph-name="uni02C9" unicode="&#x2c9;" horiz-adv-x="495" 
d="M217 698h236l-9 -47h-236z" />
    <glyph glyph-name="uni02CA" unicode="&#x2ca;" horiz-adv-x="349" 
d="M296 748l63 -31l-145 -100l-59 7z" />
    <glyph glyph-name="uni02CB" unicode="&#x2cb;" horiz-adv-x="321" 
d="M230 748l94 -124l-62 -7l-106 100z" />
    <glyph glyph-name="uni02CC" unicode="&#x2cc;" horiz-adv-x="335" 
d="M49 -208l34 177h51l-34 -177h-51z" />
    <glyph glyph-name="breve" unicode="&#x2d8;" horiz-adv-x="449" 
d="M233 725q0 -28 16.5 -45.5t43.5 -17.5q31 0 56 22t33 54h49q-12 -54 -53.5 -89t-92.5 -35q-46 0 -74 28t-28 73q0 7 2 23h49q-1 -4 -1 -13z" />
    <glyph glyph-name="dotaccent" unicode="&#x2d9;" horiz-adv-x="329" 
d="M283.5 711.5q10.5 -11.5 10.5 -28.5q0 -23 -17 -39.5t-40 -16.5q-16 0 -27 11.5t-11 28.5q0 23 17 39.5t40 16.5q17 0 27.5 -11.5z" />
    <glyph glyph-name="ring" unicode="&#x2da;" horiz-adv-x="440" 
d="M363.5 751q25.5 -26 25.5 -63q0 -28 -16 -53.5t-42 -40.5t-55 -15q-38 0 -63.5 25.5t-25.5 61.5q0 29 16 54.5t42 41t55 15.5q38 0 63.5 -26zM248.5 716q-20.5 -20 -20.5 -45q0 -22 15 -37t38 -15q27 0 48 19.5t21 45.5q0 21 -15.5 36.5t-39.5 15.5q-26 0 -46.5 -20z" />
    <glyph glyph-name="ogonek" unicode="&#x2db;" horiz-adv-x="383" 
d="M219 0q-71 -43 -100.5 -72t-29.5 -59q0 -15 9 -23t23 -8q25 0 49 14l10 -46q-42 -21 -82 -21q-35 0 -55 17t-20 49q0 45 38 87.5t122 88.5z" />
    <glyph glyph-name="tilde" unicode="&#x2dc;" horiz-adv-x="537" 
d="M472 646q-25 -30 -63 -30q-20 0 -35 8t-35 24q-16 13 -26 19t-22 6q-19 0 -31.5 -14.5t-17.5 -38.5h-48q9 47 33 77t62 30q21 0 36.5 -8.5t34.5 -24.5q18 -13 27 -18.5t20 -5.5q20 0 33.5 14.5t17.5 38.5h49q-10 -47 -35 -77z" />
    <glyph glyph-name="hungarumlaut" unicode="&#x2dd;" horiz-adv-x="477" 
d="M262 751l53 -28l-95 -106l-51 7zM404 751l53 -28l-95 -106l-51 7z" />
    <glyph glyph-name="gravecomb" unicode="&#x300;" 
d="M-97 748l118 -124l-61 -7l-125 100z" />
    <glyph glyph-name="acutecomb" unicode="&#x301;" 
d="M-77 748l69 -31l-126 -100l-60 7z" />
    <glyph glyph-name="uni0302" unicode="&#x302;" 
d="M5 619h-69l-55 76l-86 -76h-69l127 125h74z" />
    <glyph glyph-name="tildecomb" unicode="&#x303;" 
d="M-65 646q-25 -30 -63 -30q-20 0 -35 8t-35 24q-16 13 -26 19t-22 6q-19 0 -31.5 -14.5t-17.5 -38.5h-48q9 47 33 77t62 30q21 0 36.5 -8.5t34.5 -24.5q18 -13 27 -18.5t20 -5.5q20 0 33.5 14.5t17.5 38.5h49q-10 -47 -35 -77z" />
    <glyph glyph-name="uni0304" unicode="&#x304;" 
d="M-298 698h276l-9 -47h-276z" />
    <glyph glyph-name="uni0306" unicode="&#x306;" 
d="M-216 725q0 -28 16.5 -45.5t43.5 -17.5q31 0 56 22t33 54h49q-12 -54 -53.5 -89t-92.5 -35q-46 0 -74 28t-28 73q0 7 2 23h49q-1 -4 -1 -13z" />
    <glyph glyph-name="uni0307" unicode="&#x307;" 
d="M-45.5 711.5q10.5 -11.5 10.5 -28.5q0 -23 -17 -39.5t-40 -16.5q-16 0 -27 11.5t-11 28.5q0 23 17 39.5t40 16.5q17 0 27.5 -11.5z" />
    <glyph glyph-name="uni0308" unicode="&#x308;" 
d="M-208.5 708.5q9.5 -10.5 9.5 -26.5q0 -21 -16 -36.5t-36 -15.5q-16 0 -26 10.5t-10 26.5q0 21 16 36.5t37 15.5q16 0 25.5 -10.5zM-44.5 708.5q9.5 -10.5 9.5 -26.5q0 -21 -16 -36.5t-36 -15.5q-16 0 -26 10.5t-10 26.5q0 21 16 36.5t37 15.5q16 0 25.5 -10.5z" />
    <glyph glyph-name="hookabovecomb" unicode="&#x309;" 
d="M-44 752q20 -17 20 -46q0 -30 -24.5 -63t-63.5 -61l-38 18q29 21 47 45.5t18 42.5q0 14 -9 23t-26 9q-20 0 -46 -15l-17 38q46 26 85 26q34 0 54 -17z" />
    <glyph glyph-name="uni030A" unicode="&#x30a;" 
d="M-47.5 751q25.5 -26 25.5 -63q0 -28 -16 -53.5t-42 -40.5t-55 -15q-38 0 -63.5 25.5t-25.5 61.5q0 29 16 54.5t42 41t55 15.5q38 0 63.5 -26zM-162.5 716q-20.5 -20 -20.5 -45q0 -22 15 -37t38 -15q27 0 48 19.5t21 45.5q0 21 -15.5 36.5t-39.5 15.5q-26 0 -46.5 -20z
" />
    <glyph glyph-name="uni030B" unicode="&#x30b;" 
d="M-216 751l53 -28l-95 -106l-51 7zM-74 751l53 -28l-95 -106l-51 7z" />
    <glyph glyph-name="uni030C" unicode="&#x30c;" 
d="M-60 744h69l-127 -125h-74l-78 125h69l55 -76z" />
    <glyph glyph-name="uni030F" unicode="&#x30f;" 
d="M-208 751l64 -127l-55 -7l-72 106zM-66 751l64 -127l-55 -7l-72 106z" />
    <glyph glyph-name="uni0311" unicode="&#x311;" 
d="M-69 627q0 28 -16.5 45.5t-43.5 17.5q-31 0 -56 -22t-33 -54h-49q12 54 53.5 89t92.5 35q46 0 74 -28t28 -73q0 -7 -2 -23h-49q1 4 1 13z" />
    <glyph glyph-name="uni0312" unicode="&#x312;" 
d="M-86 614h-66l79 156h50z" />
    <glyph glyph-name="uni031B" unicode="&#x31b;" 
d="M-79 609q0 -57 -39 -93.5t-105 -36.5l9 45q38 0 58 19.5t20 51.5q0 18 -6 36l57 21q6 -22 6 -43z" />
    <glyph glyph-name="dotbelowcomb" unicode="&#x323;" 
d="M-204.5 -87.5q10.5 -11.5 10.5 -28.5q0 -23 -17 -39.5t-40 -16.5q-16 0 -27 11.5t-11 28.5q0 23 17 39.5t40 16.5q17 0 27.5 -11.5z" />
    <glyph glyph-name="uni0324" unicode="&#x324;" 
d="M-366.5 -84.5q9.5 -10.5 9.5 -26.5q0 -21 -16 -36.5t-36 -15.5q-16 0 -26 10.5t-10 26.5q0 21 16 36.5t37 15.5q16 0 25.5 -10.5zM-202.5 -84.5q9.5 -10.5 9.5 -26.5q0 -21 -16 -36.5t-36 -15.5q-16 0 -26 10.5t-10 26.5q0 21 16 36.5t37 15.5q16 0 25.5 -10.5z" />
    <glyph glyph-name="uni0326" unicode="&#x326;" 
d="M-243 -61h66l-79 -156h-50z" />
    <glyph glyph-name="uni0327" unicode="&#x327;" 
d="M-222 0l-27 -52q33 -4 50 -22t17 -43q0 -43 -35 -71t-87 -28q-22 0 -44 6t-38 16l25 46q12 -7 27.5 -11.5t30.5 -4.5q28 0 45.5 14.5t17.5 32.5q0 15 -12 24.5t-34 9.5h-30l44 90z" />
    <glyph glyph-name="uni0328" unicode="&#x328;" 
d="M-164 0q-71 -43 -100.5 -72t-29.5 -59q0 -15 9 -23t23 -8q25 0 49 14l10 -46q-42 -21 -82 -21q-35 0 -55 17t-20 49q0 45 38 87.5t122 88.5z" />
    <glyph glyph-name="uni032E" unicode="&#x32e;" 
d="M-373 -63q0 -28 16.5 -45.5t43.5 -17.5q31 0 56 22t33 54h49q-12 -54 -53.5 -89t-92.5 -35q-46 0 -74 28t-28 73q0 7 2 23h49q-1 -4 -1 -13z" />
    <glyph glyph-name="uni0331" unicode="&#x331;" 
d="M-435 -85h236l-9 -47h-236z" />
    <glyph glyph-name="uni0335" unicode="&#x335;" 
d="M-402 463h312l-8 -44h-312z" />
    <glyph glyph-name="uni0336" unicode="&#x336;" 
d="M-476 463h386l-8 -44h-386z" />
    <glyph glyph-name="uni0337" unicode="&#x337;" 
d="M-36 559l-248 -473h-59l248 473h59z" />
    <glyph glyph-name="uni0338" unicode="&#x338;" 
d="M-429 0l388 742h60l-389 -742h-59z" />
    <glyph glyph-name="uni0394" unicode="&#x394;" horiz-adv-x="712" 
d="M455 700l199 -700h-701l430 700h72zM64 63h498l-157 562z" />
    <glyph glyph-name="uni03A9" unicode="&#x3a9;" horiz-adv-x="904" 
d="M642 662.5q75 -39.5 116.5 -109t41.5 -158.5q0 -94 -53 -187.5t-135 -148.5h240l-11 -59h-315l6 63q93 49 148.5 138t55.5 182q0 72 -33 131t-94 93t-142 34q-93 0 -168 -43t-117 -115.5t-42 -155.5q0 -81 39 -152.5t108 -111.5l-6 -63h-323l12 59h235q-58 45 -92.5 120
t-34.5 155q0 101 52.5 185.5t143 133.5t198.5 49q95 0 170 -39.5z" />
    <glyph glyph-name="uni03BC" unicode="&#x3bc;" horiz-adv-x="656" 
d="M609 524l-103 -524h-68l22 110q-35 -55 -88.5 -84t-121.5 -30q-95 0 -143 50l-48 -240h-68l143 718h68l-63 -316q-2 -10 -2 -30q0 -57 35 -89t98 -32q81 1 140 51.5t77 137.5l55 278h67z" />
    <glyph glyph-name="pi" unicode="&#x3c0;" horiz-adv-x="722" 
d="M756 471h-165l-94 -471h-58l94 471h-195l-148 -471h-58l148 471h-66q-40 0 -73 -18.5t-52 -50t-19 -66.5q0 -30 13 -56l-49 -16q-19 39 -19 81q0 48 25.5 89t70.5 65.5t102 24.5h553z" />
    <glyph glyph-name="uni1E08" unicode="&#x1e08;" horiz-adv-x="728" 
d="M638 867l-126 -100l-60 7l117 124zM296 599.5q-75 -43.5 -119.5 -117t-44.5 -160.5q0 -73 34.5 -133t95.5 -95t136 -35q59 0 116 22.5t103 62.5l38 -45q-56 -48 -125 -76t-138 -29l-24 -46q33 -4 50 -22t17 -43q0 -43 -35 -71t-87 -28q-22 0 -44 6t-38 16l25 46
q12 -7 27.5 -11.5t30.5 -4.5q28 0 45.5 14.5t17.5 32.5q0 15 -12 24.5t-34 9.5h-30l39 80q-81 11 -144 55.5t-98.5 114t-35.5 151.5q0 104 55 193t147 141.5t197 52.5q71 0 134.5 -26.5t109.5 -73.5l-46 -49q-39 42 -91 64.5t-111 22.5q-86 0 -161 -43.5z" />
    <glyph glyph-name="uni1E09" unicode="&#x1e09;" horiz-adv-x="581" 
d="M506 717l-126 -100l-60 7l117 124zM384 74.5q44 17.5 76 51.5l35 -40q-39 -41 -93 -64t-117 -24l-26 -50q33 -4 50 -22t17 -43q0 -43 -35 -71t-87 -28q-22 0 -44 6t-38 16l25 46q12 -7 27.5 -11.5t30.5 -4.5q28 0 45.5 14.5t17.5 32.5q0 15 -12 24.5t-34 9.5h-30l41 85
q-86 14 -137 77t-51 157q0 83 38 149.5t103.5 104t145.5 37.5q60 0 109 -20t81 -56l-42 -46q-59 62 -151 62q-60 0 -110 -29t-78.5 -80.5t-28.5 -116.5q0 -82 48.5 -133t127.5 -51q52 0 96 17.5z" />
    <glyph glyph-name="uni1E0C" unicode="&#x1e0c;" horiz-adv-x="795" 
d="M623.5 661.5q70.5 -38.5 110 -106t39.5 -152.5q0 -11 -2 -37q-10 -101 -69 -185t-151 -132.5t-196 -48.5h-296l139 700h264q91 0 161.5 -38.5zM703 394q0 69 -32.5 124t-89.5 86.5t-129 31.5h-197l-115 -573h227q82 0 155.5 39.5t121.5 108t57 151.5q2 22 2 32z
M343.5 -87.5q10.5 -11.5 10.5 -28.5q0 -23 -17 -39.5t-40 -16.5q-16 0 -27 11.5t-11 28.5q0 23 17 39.5t40 16.5q17 0 27.5 -11.5z" />
    <glyph glyph-name="uni1E0D" unicode="&#x1e0d;" horiz-adv-x="681" 
d="M151.5 25.5q-51.5 29.5 -80 82.5t-28.5 121q0 83 38 151.5t103 108t144 39.5t133.5 -39t72.5 -108l73 361h67l-148 -742h-67l21 101q-38 -50 -93 -77.5t-118 -27.5q-66 0 -117.5 29.5zM401 84.5q51 31.5 80.5 85.5t29.5 118q0 80 -49 130t-128 50q-61 0 -112 -31.5
t-81 -85.5t-30 -118q0 -80 49.5 -130t129.5 -50q60 0 111 31.5zM309.5 -87.5q10.5 -11.5 10.5 -28.5q0 -23 -17 -39.5t-40 -16.5q-16 0 -27 11.5t-11 28.5q0 23 17 39.5t40 16.5q17 0 27.5 -11.5z" />
    <glyph glyph-name="uni1E0E" unicode="&#x1e0e;" horiz-adv-x="795" 
d="M623.5 661.5q70.5 -38.5 110 -106t39.5 -152.5q0 -11 -2 -37q-10 -101 -69 -185t-151 -132.5t-196 -48.5h-296l139 700h264q91 0 161.5 -38.5zM703 394q0 69 -32.5 124t-89.5 86.5t-129 31.5h-197l-115 -573h227q82 0 155.5 39.5t121.5 108t57 151.5q2 22 2 32zM196 -85
h236l-9 -47h-236z" />
    <glyph glyph-name="uni1E0F" unicode="&#x1e0f;" horiz-adv-x="681" 
d="M151.5 25.5q-51.5 29.5 -80 82.5t-28.5 121q0 83 38 151.5t103 108t144 39.5t133.5 -39t72.5 -108l73 361h67l-148 -742h-67l21 101q-38 -50 -93 -77.5t-118 -27.5q-66 0 -117.5 29.5zM401 84.5q51 31.5 80.5 85.5t29.5 118q0 80 -49 130t-128 50q-61 0 -112 -31.5
t-81 -85.5t-30 -118q0 -80 49.5 -130t129.5 -50q60 0 111 31.5zM162 -85h236l-9 -47h-236z" />
    <glyph glyph-name="uni1E14" unicode="&#x1e14;" horiz-adv-x="650" 
d="M654 636h-400l-50 -249h357l-13 -63h-357l-52 -261h412l-12 -63h-481l140 700h468zM348 817h236l-9 -47h-236zM405 986l138 -100l-54 -17l-142 77z" />
    <glyph glyph-name="uni1E15" unicode="&#x1e15;" horiz-adv-x="599" 
d="M111 239v-3q0 -83 49.5 -133t132.5 -50q48 0 91 16t76 46l32 -44q-39 -36 -91 -55t-111 -19q-73 0 -128.5 30t-86 84t-30.5 125q0 82 38 148.5t104.5 104.5t146.5 38q104 0 164.5 -62t60.5 -166q0 -25 -5 -60h-443zM193.5 421q-59.5 -49 -76.5 -129h382q1 83 -42.5 130.5
t-122.5 47.5q-81 0 -140.5 -49zM238 661h236l-9 -47h-236zM295 830l138 -100l-54 -17l-142 77z" />
    <glyph glyph-name="uni1E16" unicode="&#x1e16;" horiz-adv-x="650" 
d="M654 636h-400l-50 -249h357l-13 -63h-357l-52 -261h412l-12 -63h-481l140 700h468zM344 817h236l-9 -47h-236zM547 986l57 -40l-141 -77l-55 17z" />
    <glyph glyph-name="uni1E17" unicode="&#x1e17;" horiz-adv-x="599" 
d="M111 239v-3q0 -83 49.5 -133t132.5 -50q48 0 91 16t76 46l32 -44q-39 -36 -91 -55t-111 -19q-73 0 -128.5 30t-86 84t-30.5 125q0 82 38 148.5t104.5 104.5t146.5 38q104 0 164.5 -62t60.5 -166q0 -25 -5 -60h-443zM193.5 421q-59.5 -49 -76.5 -129h382q1 83 -42.5 130.5
t-122.5 47.5q-81 0 -140.5 -49zM234 661h236l-9 -47h-236zM437 830l57 -40l-141 -77l-55 17z" />
    <glyph glyph-name="uni1E1C" unicode="&#x1e1c;" horiz-adv-x="650" 
d="M377 793q-28 28 -28 73q0 7 2 23h49q-1 -4 -1 -13q0 -28 16.5 -45.5t43.5 -17.5q31 0 56 22t33 54h49q-12 -54 -53.5 -89t-92.5 -35q-46 0 -74 28zM254 636l-50 -249h357l-13 -63h-357l-52 -261h412l-12 -63h-188l-27 -52q33 -4 50 -22t17 -43q0 -43 -35 -71t-87 -28
q-22 0 -44 6t-38 16l25 46q12 -7 27.5 -11.5t30.5 -4.5q28 0 45.5 14.5t17.5 32.5q0 15 -12 24.5t-34 9.5h-30l41 83h-240l140 700h468l-12 -64h-400z" />
    <glyph glyph-name="uni1E1D" unicode="&#x1e1d;" horiz-adv-x="599" 
d="M310 642q-28 28 -28 73q0 7 2 23h49q-1 -4 -1 -13q0 -28 16.5 -45.5t43.5 -17.5q31 0 56 22t33 54h49q-12 -54 -53.5 -89t-92.5 -35q-46 0 -74 28zM111 239v-3q0 -83 49.5 -133t132.5 -50q48 0 91 16t76 46l32 -44q-36 -33 -83 -52t-102 -22l-26 -49q33 -4 50 -22t17 -43
q0 -43 -35 -71t-87 -28q-22 0 -44 6t-38 16l25 46q12 -7 27.5 -11.5t30.5 -4.5q28 0 45.5 14.5t17.5 32.5q0 15 -12 24.5t-34 9.5h-30l40 82q-95 11 -152 75t-57 162q0 82 38 148.5t104.5 104.5t146.5 38q104 0 164.5 -62t60.5 -166q0 -25 -5 -60h-443zM193.5 421
q-59.5 -49 -76.5 -129h382q1 83 -42.5 130.5t-122.5 47.5q-81 0 -140.5 -49z" />
    <glyph glyph-name="uni1E20" unicode="&#x1e20;" horiz-adv-x="769" 
d="M633 342h62l-51 -256q-122 -92 -253 -92q-93 0 -168.5 43t-118 117t-42.5 164q0 104 55 193t148 141.5t200 52.5q71 0 135.5 -25t109.5 -70l-45 -49q-38 39 -92 60.5t-113 21.5q-87 0 -162.5 -43.5t-120.5 -117.5t-45 -161q0 -74 35 -134t96.5 -95t137.5 -35q97 0 189 62
zM324 821h306l-9 -46h-306z" />
    <glyph glyph-name="uni1E21" unicode="&#x1e21;" horiz-adv-x="636" 
d="M103 -175q-53 20 -101 61l34 45q70 -66 180 -69q89 0 145.5 41.5t73.5 119.5l22 102q-36 -47 -87.5 -72.5t-109.5 -25.5q-62 0 -110.5 28t-75.5 78t-27 114q0 78 35.5 142.5t97 101.5t135.5 37q75 0 126 -36t68 -101l28 133h67l-102 -505q-21 -103 -94 -158.5t-188 -55.5
q-64 0 -117 20zM385.5 113q47.5 29 75 79t27.5 109q0 75 -46 121t-120 46q-57 0 -104.5 -29t-75 -79t-27.5 -109q0 -75 46 -121t120 -46q57 0 104.5 29zM257 698h276l-9 -47h-276z" />
    <glyph glyph-name="uni1E24" unicode="&#x1e24;" horiz-adv-x="887" 
d="M750 700h69l-140 -700h-69l63 316h-437l-63 -316h-69l140 700h69l-64 -321h437zM405.5 -87.5q10.5 -11.5 10.5 -28.5q0 -23 -17 -39.5t-40 -16.5q-16 0 -27 11.5t-11 28.5q0 23 17 39.5t40 16.5q17 0 27.5 -11.5z" />
    <glyph glyph-name="uni1E25" unicode="&#x1e25;" horiz-adv-x="662" 
d="M547.5 485.5q48.5 -42.5 48.5 -118.5q0 -26 -6 -55l-62 -312h-68l61 305q4 20 4 42q0 57 -34.5 88.5t-98.5 31.5q-81 -1 -140 -51.5t-77 -137.5l-55 -278h-67l146 742h68l-65 -328q35 55 88.5 84t121.5 30q87 0 135.5 -42.5zM292.5 -87.5q10.5 -11.5 10.5 -28.5
q0 -23 -17 -39.5t-40 -16.5q-16 0 -27 11.5t-11 28.5q0 23 17 39.5t40 16.5q17 0 27.5 -11.5z" />
    <glyph glyph-name="uni1E2A" unicode="&#x1e2a;" horiz-adv-x="887" 
d="M750 700h69l-140 -700h-69l63 316h-437l-63 -316h-69l140 700h69l-64 -321h437zM307 -63q0 -28 16.5 -45.5t43.5 -17.5q31 0 56 22t33 54h49q-12 -54 -53.5 -89t-92.5 -35q-46 0 -74 28t-28 73q0 7 2 23h49q-1 -4 -1 -13z" />
    <glyph glyph-name="uni1E2B" unicode="&#x1e2b;" horiz-adv-x="662" 
d="M547.5 485.5q48.5 -42.5 48.5 -118.5q0 -26 -6 -55l-62 -312h-68l61 305q4 20 4 42q0 57 -34.5 88.5t-98.5 31.5q-81 -1 -140 -51.5t-77 -137.5l-55 -278h-67l146 742h68l-65 -328q35 55 88.5 84t121.5 30q87 0 135.5 -42.5zM194 -63q0 -28 16.5 -45.5t43.5 -17.5
q31 0 56 22t33 54h49q-12 -54 -53.5 -89t-92.5 -35q-46 0 -74 28t-28 73q0 7 2 23h49q-1 -4 -1 -13z" />
    <glyph glyph-name="uni1E2E" unicode="&#x1e2e;" horiz-adv-x="289" 
d="M266 700l-140 -700h-69l140 700h69zM212.5 844q9.5 -10 9.5 -26q0 -21 -15.5 -36t-35.5 -15q-16 0 -25.5 10.5t-9.5 26.5q0 21 15.5 35.5t36.5 14.5q15 0 24.5 -10zM363.5 844q9.5 -10 9.5 -26q0 -21 -15.5 -36t-35.5 -15q-15 0 -25 11t-10 26q0 21 15.5 35.5t36.5 14.5
q15 0 24.5 -10zM341 991l57 -40l-141 -77l-55 17z" />
    <glyph glyph-name="uni1E2F" unicode="&#x1e2f;" horiz-adv-x="263" 
d="M217 524l-104 -524h-67l104 524h67zM165.5 688q9.5 -10 9.5 -26q0 -21 -15.5 -36t-35.5 -15q-16 0 -25.5 10.5t-9.5 26.5q0 21 15.5 35.5t36.5 14.5q15 0 24.5 -10zM316.5 688q9.5 -10 9.5 -26q0 -21 -15.5 -36t-35.5 -15q-15 0 -25 11t-10 26q0 21 15.5 35.5t36.5 14.5
q15 0 24.5 -10zM294 835l57 -40l-141 -77l-55 17z" />
    <glyph glyph-name="uni1E36" unicode="&#x1e36;" horiz-adv-x="513" 
d="M139 63h308l-12 -63h-377l140 700h69zM265.5 -87.5q10.5 -11.5 10.5 -28.5q0 -23 -17 -39.5t-40 -16.5q-16 0 -27 11.5t-11 28.5q0 23 17 39.5t40 16.5q17 0 27.5 -11.5z" />
    <glyph glyph-name="uni1E37" unicode="&#x1e37;" horiz-adv-x="273" 
d="M266 742l-148 -742h-67l148 742h67zM98.5 -87.5q10.5 -11.5 10.5 -28.5q0 -23 -17 -39.5t-40 -16.5q-16 0 -27 11.5t-11 28.5q0 23 17 39.5t40 16.5q17 0 27.5 -11.5z" />
    <glyph glyph-name="uni1E3A" unicode="&#x1e3a;" horiz-adv-x="513" 
d="M139 63h308l-12 -63h-377l140 700h69zM118 -85h236l-9 -47h-236z" />
    <glyph glyph-name="uni1E3B" unicode="&#x1e3b;" horiz-adv-x="273" 
d="M266 742l-148 -742h-67l148 742h67zM-50 -85h236l-9 -47h-236z" />
    <glyph glyph-name="uni1E42" unicode="&#x1e42;" horiz-adv-x="939" 
d="M829 700h83l-136 -700h-62l118 608l-380 -533h-37l-173 533l-118 -608h-63l136 700h84l171 -529zM441.5 -87.5q10.5 -11.5 10.5 -28.5q0 -23 -17 -39.5t-40 -16.5q-16 0 -27 11.5t-11 28.5q0 23 17 39.5t40 16.5q17 0 27.5 -11.5z" />
    <glyph glyph-name="uni1E43" unicode="&#x1e43;" horiz-adv-x="1063" 
d="M950 485.5q48 -42.5 48 -119.5q0 -25 -6 -54l-63 -312h-67l60 305q4 20 4 42q0 57 -35 88.5t-98 31.5q-79 -1 -136.5 -49t-77.5 -129l-57 -289h-68l61 305q4 20 4 42q0 57 -35 88.5t-98 31.5q-82 -1 -141 -52t-76 -137l-55 -278h-67l103 524h68l-22 -110q35 55 88.5 84
t121.5 30q80 0 127 -35.5t55 -100.5q79 134 226 136q88 0 136 -42.5zM500.5 -87.5q10.5 -11.5 10.5 -28.5q0 -23 -17 -39.5t-40 -16.5q-16 0 -27 11.5t-11 28.5q0 23 17 39.5t40 16.5q17 0 27.5 -11.5z" />
    <glyph glyph-name="uni1E44" unicode="&#x1e44;" horiz-adv-x="796" 
d="M705 700h68l-140 -700h-73l-314 592l-119 -592h-69l140 700h73l314 -593zM546.5 851.5q10.5 -11.5 10.5 -28.5q0 -23 -17 -39.5t-40 -16.5q-16 0 -27 11.5t-11 28.5q0 23 17 39.5t40 16.5q17 0 27.5 -11.5z" />
    <glyph glyph-name="uni1E45" unicode="&#x1e45;" horiz-adv-x="656" 
d="M541.5 485.5q48.5 -42.5 48.5 -118.5q0 -26 -6 -55l-62 -312h-68l61 305q4 20 4 42q0 57 -34.5 88.5t-98.5 31.5q-81 -1 -140 -51.5t-77 -137.5l-55 -278h-67l103 524h68l-22 -110q35 55 88.5 84t121.5 30q87 0 135.5 -42.5zM450.5 711.5q10.5 -11.5 10.5 -28.5
q0 -23 -17 -39.5t-40 -16.5q-16 0 -27 11.5t-11 28.5q0 23 17 39.5t40 16.5q17 0 27.5 -11.5z" />
    <glyph glyph-name="uni1E46" unicode="&#x1e46;" horiz-adv-x="796" 
d="M705 700h68l-140 -700h-73l-314 592l-119 -592h-69l140 700h73l314 -593zM359.5 -87.5q10.5 -11.5 10.5 -28.5q0 -23 -17 -39.5t-40 -16.5q-16 0 -27 11.5t-11 28.5q0 23 17 39.5t40 16.5q17 0 27.5 -11.5z" />
    <glyph glyph-name="uni1E47" unicode="&#x1e47;" horiz-adv-x="656" 
d="M541.5 485.5q48.5 -42.5 48.5 -118.5q0 -26 -6 -55l-62 -312h-68l61 305q4 20 4 42q0 57 -34.5 88.5t-98.5 31.5q-81 -1 -140 -51.5t-77 -137.5l-55 -278h-67l103 524h68l-22 -110q35 55 88.5 84t121.5 30q87 0 135.5 -42.5zM307.5 -87.5q10.5 -11.5 10.5 -28.5
q0 -23 -17 -39.5t-40 -16.5q-16 0 -27 11.5t-11 28.5q0 23 17 39.5t40 16.5q17 0 27.5 -11.5z" />
    <glyph glyph-name="uni1E48" unicode="&#x1e48;" horiz-adv-x="796" 
d="M705 700h68l-140 -700h-73l-314 592l-119 -592h-69l140 700h73l314 -593zM212 -85h236l-9 -47h-236z" />
    <glyph glyph-name="uni1E49" unicode="&#x1e49;" horiz-adv-x="656" 
d="M541.5 485.5q48.5 -42.5 48.5 -118.5q0 -26 -6 -55l-62 -312h-68l61 305q4 20 4 42q0 57 -34.5 88.5t-98.5 31.5q-81 -1 -140 -51.5t-77 -137.5l-55 -278h-67l103 524h68l-22 -110q35 55 88.5 84t121.5 30q87 0 135.5 -42.5zM160 -85h236l-9 -47h-236z" />
    <glyph glyph-name="uni1E4C" unicode="&#x1e4c;" horiz-adv-x="819" 
d="M637.5 660q77.5 -45 119.5 -122.5t37 -171.5q-4 -101 -60.5 -186.5t-147 -135.5t-193.5 -50q-94 0 -169.5 43t-118.5 117t-43 164q0 105 55 194t147.5 141t198.5 52q97 0 174.5 -45zM298 598.5q-75 -43.5 -120.5 -117t-45.5 -159.5q0 -73 35 -134t96.5 -96t135.5 -35
q84 0 159 44t120 118t45 160q0 73 -35 133t-95.5 95t-134.5 35q-85 0 -160 -43.5zM633.5 793q-24.5 -26 -62.5 -26q-21 0 -37 7.5t-35 21.5q-19 12 -28.5 17t-21.5 5q-40 0 -50 -48h-42q8 43 31.5 69t61.5 26q21 0 37 -7.5t35 -21.5q19 -12 28.5 -17t21.5 -5q20 0 33.5 12.5
t18.5 34.5h42q-8 -42 -32.5 -68zM604 1018l57 -40l-141 -77l-55 17z" />
    <glyph glyph-name="uni1E4D" unicode="&#x1e4d;" horiz-adv-x="621" 
d="M462.5 496.5q54.5 -30.5 84.5 -84.5t30 -124q0 -83 -38.5 -149t-105.5 -103.5t-149 -37.5q-71 0 -125 30.5t-84 84.5t-30 124q0 83 38.5 149t105 103.5t148.5 37.5q71 0 125.5 -30.5zM220 438.5q-50 -29.5 -78.5 -81.5t-28.5 -117q0 -82 48.5 -133t128.5 -51q61 0 111 29
t78.5 81t28.5 118q0 82 -48.5 133t-128.5 51q-61 0 -111 -29.5zM486.5 635q-24.5 -26 -62.5 -26q-21 0 -37 7.5t-35 21.5q-19 12 -28.5 17t-21.5 5q-40 0 -50 -48h-42q8 43 31.5 69t61.5 26q21 0 37 -7.5t35 -21.5q19 -12 28.5 -17t21.5 -5q20 0 33.5 12.5t18.5 34.5h42
q-8 -42 -32.5 -68zM457 860l57 -40l-141 -77l-55 17z" />
    <glyph glyph-name="uni1E4E" unicode="&#x1e4e;" horiz-adv-x="819" 
d="M637.5 660q77.5 -45 119.5 -122.5t37 -171.5q-4 -101 -60.5 -186.5t-147 -135.5t-193.5 -50q-94 0 -169.5 43t-118.5 117t-43 164q0 105 55 194t147.5 141t198.5 52q97 0 174.5 -45zM298 598.5q-75 -43.5 -120.5 -117t-45.5 -159.5q0 -73 35 -134t96.5 -96t135.5 -35
q84 0 159 44t120 118t45 160q0 73 -35 133t-95.5 95t-134.5 35q-85 0 -160 -43.5zM628.5 793q-24.5 -26 -62.5 -26q-21 0 -37 7.5t-35 21.5q-19 12 -28.5 17t-21.5 5q-40 0 -50 -48h-42q8 43 31.5 69t61.5 26q21 0 37 -7.5t35 -21.5q19 -12 28.5 -17t21.5 -5q20 0 33.5 12.5
t18.5 34.5h42q-8 -42 -32.5 -68zM489.5 977q9.5 -10 9.5 -26q0 -21 -15.5 -36t-35.5 -15q-16 0 -25.5 10.5t-9.5 26.5q0 21 15.5 35.5t36.5 14.5q15 0 24.5 -10zM640.5 977q9.5 -10 9.5 -26q0 -21 -15.5 -36t-35.5 -15q-15 0 -25 11t-10 26q0 21 15.5 35.5t36.5 14.5
q15 0 24.5 -10z" />
    <glyph glyph-name="uni1E4F" unicode="&#x1e4f;" horiz-adv-x="621" 
d="M462.5 496.5q54.5 -30.5 84.5 -84.5t30 -124q0 -83 -38.5 -149t-105.5 -103.5t-149 -37.5q-71 0 -125 30.5t-84 84.5t-30 124q0 83 38.5 149t105 103.5t148.5 37.5q71 0 125.5 -30.5zM220 438.5q-50 -29.5 -78.5 -81.5t-28.5 -117q0 -82 48.5 -133t128.5 -51q61 0 111 29
t78.5 81t28.5 118q0 82 -48.5 133t-128.5 51q-61 0 -111 -29.5zM485.5 635q-24.5 -26 -62.5 -26q-21 0 -37 7.5t-35 21.5q-19 12 -28.5 17t-21.5 5q-40 0 -50 -48h-42q8 43 31.5 69t61.5 26q21 0 37 -7.5t35 -21.5q19 -12 28.5 -17t21.5 -5q20 0 33.5 12.5t18.5 34.5h42
q-8 -42 -32.5 -68zM346.5 819q9.5 -10 9.5 -26q0 -21 -15.5 -36t-35.5 -15q-16 0 -25.5 10.5t-9.5 26.5q0 21 15.5 35.5t36.5 14.5q15 0 24.5 -10zM497.5 819q9.5 -10 9.5 -26q0 -21 -15.5 -36t-35.5 -15q-15 0 -25 11t-10 26q0 21 15.5 35.5t36.5 14.5q15 0 24.5 -10z" />
    <glyph glyph-name="uni1E50" unicode="&#x1e50;" horiz-adv-x="819" 
d="M637.5 660q77.5 -45 119.5 -122.5t37 -171.5q-4 -101 -60.5 -186.5t-147 -135.5t-193.5 -50q-94 0 -169.5 43t-118.5 117t-43 164q0 105 55 194t147.5 141t198.5 52q97 0 174.5 -45zM298 598.5q-75 -43.5 -120.5 -117t-45.5 -159.5q0 -73 35 -134t96.5 -96t135.5 -35
q84 0 159 44t120 118t45 160q0 73 -35 133t-95.5 95t-134.5 35q-85 0 -160 -43.5zM367 817h236l-9 -47h-236zM424 986l138 -100l-54 -17l-142 77z" />
    <glyph glyph-name="uni1E51" unicode="&#x1e51;" horiz-adv-x="621" 
d="M462.5 496.5q54.5 -30.5 84.5 -84.5t30 -124q0 -83 -38.5 -149t-105.5 -103.5t-149 -37.5q-71 0 -125 30.5t-84 84.5t-30 124q0 83 38.5 149t105 103.5t148.5 37.5q71 0 125.5 -30.5zM220 438.5q-50 -29.5 -78.5 -81.5t-28.5 -117q0 -82 48.5 -133t128.5 -51q61 0 111 29
t78.5 81t28.5 118q0 82 -48.5 133t-128.5 51q-61 0 -111 -29.5zM249 658h236l-9 -47h-236zM306 827l138 -100l-54 -17l-142 77z" />
    <glyph glyph-name="uni1E52" unicode="&#x1e52;" horiz-adv-x="819" 
d="M637.5 660q77.5 -45 119.5 -122.5t37 -171.5q-4 -101 -60.5 -186.5t-147 -135.5t-193.5 -50q-94 0 -169.5 43t-118.5 117t-43 164q0 105 55 194t147.5 141t198.5 52q97 0 174.5 -45zM298 598.5q-75 -43.5 -120.5 -117t-45.5 -159.5q0 -73 35 -134t96.5 -96t135.5 -35
q84 0 159 44t120 118t45 160q0 73 -35 133t-95.5 95t-134.5 35q-85 0 -160 -43.5zM363 817h236l-9 -47h-236zM566 986l57 -40l-141 -77l-55 17z" />
    <glyph glyph-name="uni1E53" unicode="&#x1e53;" horiz-adv-x="621" 
d="M462.5 496.5q54.5 -30.5 84.5 -84.5t30 -124q0 -83 -38.5 -149t-105.5 -103.5t-149 -37.5q-71 0 -125 30.5t-84 84.5t-30 124q0 83 38.5 149t105 103.5t148.5 37.5q71 0 125.5 -30.5zM220 438.5q-50 -29.5 -78.5 -81.5t-28.5 -117q0 -82 48.5 -133t128.5 -51q61 0 111 29
t78.5 81t28.5 118q0 82 -48.5 133t-128.5 51q-61 0 -111 -29.5zM245 658h236l-9 -47h-236zM448 827l57 -40l-141 -77l-55 17z" />
    <glyph glyph-name="uni1E5A" unicode="&#x1e5a;" horiz-adv-x="724" 
d="M636.5 337.5q-55.5 -71.5 -156.5 -97.5l119 -240h-80l-106 228q-32 -2 -49 -2h-192l-45 -226h-69l140 700h260q113 0 173.5 -49t60.5 -139q0 -103 -55.5 -174.5zM558 344.5q66 55.5 66 154.5q0 67 -46 102t-132 35h-192l-69 -347h191q116 0 182 55.5zM321.5 -87.5
q10.5 -11.5 10.5 -28.5q0 -23 -17 -39.5t-40 -16.5q-16 0 -27 11.5t-11 28.5q0 23 17 39.5t40 16.5q17 0 27.5 -11.5z" />
    <glyph glyph-name="uni1E5B" unicode="&#x1e5b;" horiz-adv-x="368" 
d="M286 495.5q54 30.5 121 31.5l-8 -65q-82 1 -143.5 -48.5t-86.5 -133.5l-56 -280h-67l104 524h68l-24 -117q38 58 92 88.5zM91.5 -87.5q10.5 -11.5 10.5 -28.5q0 -23 -17 -39.5t-40 -16.5q-16 0 -27 11.5t-11 28.5q0 23 17 39.5t40 16.5q17 0 27.5 -11.5z" />
    <glyph glyph-name="uni1E5E" unicode="&#x1e5e;" horiz-adv-x="724" 
d="M636.5 337.5q-55.5 -71.5 -156.5 -97.5l119 -240h-80l-106 228q-32 -2 -49 -2h-192l-45 -226h-69l140 700h260q113 0 173.5 -49t60.5 -139q0 -103 -55.5 -174.5zM558 344.5q66 55.5 66 154.5q0 67 -46 102t-132 35h-192l-69 -347h191q116 0 182 55.5zM174 -85h236l-9 -47
h-236z" />
    <glyph glyph-name="uni1E5F" unicode="&#x1e5f;" horiz-adv-x="368" 
d="M286 495.5q54 30.5 121 31.5l-8 -65q-82 1 -143.5 -48.5t-86.5 -133.5l-56 -280h-67l104 524h68l-24 -117q38 58 92 88.5zM-57 -85h236l-9 -47h-236z" />
    <glyph glyph-name="uni1E60" unicode="&#x1e60;" horiz-adv-x="603" 
d="M467 691q56 -17 97 -46l-36 -60q-40 28 -89.5 42t-95.5 14q-73 0 -119.5 -28.5t-50.5 -76.5l-1 -14q0 -38 21.5 -62.5t52.5 -38.5t86 -32q63 -21 101.5 -39.5t65.5 -53t27 -89.5q0 -16 -1 -25q-5 -57 -41 -99.5t-95.5 -66t-133.5 -23.5q-73 0 -140.5 29t-113.5 77l39 59
q41 -47 101 -73t121 -26q86 0 137 36.5t51 98.5q0 39 -21.5 64t-54 39.5t-87.5 32.5q-63 20 -101 38t-64.5 52t-26.5 88q0 15 1 23q5 53 38.5 93t90.5 62t128 22q58 0 114 -17zM402.5 851.5q10.5 -11.5 10.5 -28.5q0 -23 -17 -39.5t-40 -16.5q-16 0 -27 11.5t-11 28.5
q0 23 17 39.5t40 16.5q17 0 27.5 -11.5z" />
    <glyph glyph-name="uni1E61" unicode="&#x1e61;" horiz-adv-x="464" 
d="M85 19.5q-61 26.5 -94 70.5l34 45q31 -38 82 -61.5t106 -23.5q53 0 87.5 25.5t34.5 66.5q0 34 -28 54.5t-84 43.5q-46 19 -74.5 35t-48.5 42t-20 65q0 67 50.5 107.5t129.5 40.5q55 0 104.5 -17.5t83.5 -46.5l-34 -48q-32 25 -73.5 40t-82.5 15q-49 0 -80.5 -23
t-31.5 -61q0 -33 27 -52.5t84 -42.5q47 -19 76.5 -35t50 -43t20.5 -67q0 -70 -54 -113t-137 -43q-67 0 -128 26.5zM346.5 711.5q10.5 -11.5 10.5 -28.5q0 -23 -17 -39.5t-40 -16.5q-16 0 -27 11.5t-11 28.5q0 23 17 39.5t40 16.5q17 0 27.5 -11.5z" />
    <glyph glyph-name="uni1E62" unicode="&#x1e62;" horiz-adv-x="603" 
d="M467 691q56 -17 97 -46l-36 -60q-40 28 -89.5 42t-95.5 14q-73 0 -119.5 -28.5t-50.5 -76.5l-1 -14q0 -38 21.5 -62.5t52.5 -38.5t86 -32q63 -21 101.5 -39.5t65.5 -53t27 -89.5q0 -16 -1 -25q-5 -57 -41 -99.5t-95.5 -66t-133.5 -23.5q-73 0 -140.5 29t-113.5 77l39 59
q41 -47 101 -73t121 -26q86 0 137 36.5t51 98.5q0 39 -21.5 64t-54 39.5t-87.5 32.5q-63 20 -101 38t-64.5 52t-26.5 88q0 15 1 23q5 53 38.5 93t90.5 62t128 22q58 0 114 -17zM263.5 -87.5q10.5 -11.5 10.5 -28.5q0 -23 -17 -39.5t-40 -16.5q-16 0 -27 11.5t-11 28.5
q0 23 17 39.5t40 16.5q17 0 27.5 -11.5z" />
    <glyph glyph-name="uni1E63" unicode="&#x1e63;" horiz-adv-x="464" 
d="M85 19.5q-61 26.5 -94 70.5l34 45q31 -38 82 -61.5t106 -23.5q53 0 87.5 25.5t34.5 66.5q0 34 -28 54.5t-84 43.5q-46 19 -74.5 35t-48.5 42t-20 65q0 67 50.5 107.5t129.5 40.5q55 0 104.5 -17.5t83.5 -46.5l-34 -48q-32 25 -73.5 40t-82.5 15q-49 0 -80.5 -23
t-31.5 -61q0 -33 27 -52.5t84 -42.5q47 -19 76.5 -35t50 -43t20.5 -67q0 -70 -54 -113t-137 -43q-67 0 -128 26.5zM203.5 -87.5q10.5 -11.5 10.5 -28.5q0 -23 -17 -39.5t-40 -16.5q-16 0 -27 11.5t-11 28.5q0 23 17 39.5t40 16.5q17 0 27.5 -11.5z" />
    <glyph glyph-name="uni1E64" unicode="&#x1e64;" horiz-adv-x="603" 
d="M467 691q56 -17 97 -46l-36 -60q-40 28 -89.5 42t-95.5 14q-73 0 -119.5 -28.5t-50.5 -76.5l-1 -14q0 -38 21.5 -62.5t52.5 -38.5t86 -32q63 -21 101.5 -39.5t65.5 -53t27 -89.5q0 -16 -1 -25q-5 -57 -41 -99.5t-95.5 -66t-133.5 -23.5q-73 0 -140.5 29t-113.5 77l39 59
q41 -47 101 -73t121 -26q86 0 137 36.5t51 98.5q0 39 -21.5 64t-54 39.5t-87.5 32.5q-63 20 -101 38t-64.5 52t-26.5 88q0 15 1 23q5 53 38.5 93t90.5 62t128 22q58 0 114 -17zM411 878l57 -40l-141 -77l-55 17zM420.5 978.5q10.5 -10.5 10.5 -27.5q0 -22 -16.5 -37.5
t-38.5 -15.5q-16 0 -26 11t-10 27q0 21 16.5 37t37.5 16q16 0 26.5 -10.5z" />
    <glyph glyph-name="uni1E65" unicode="&#x1e65;" horiz-adv-x="464" 
d="M85 19.5q-61 26.5 -94 70.5l34 45q31 -38 82 -61.5t106 -23.5q53 0 87.5 25.5t34.5 66.5q0 34 -28 54.5t-84 43.5q-46 19 -74.5 35t-48.5 42t-20 65q0 67 50.5 107.5t129.5 40.5q55 0 104.5 -17.5t83.5 -46.5l-34 -48q-32 25 -73.5 40t-82.5 15q-49 0 -80.5 -23
t-31.5 -61q0 -33 27 -52.5t84 -42.5q47 -19 76.5 -35t50 -43t20.5 -67q0 -70 -54 -113t-137 -43q-67 0 -128 26.5zM342 728l57 -40l-141 -77l-55 17zM351.5 828.5q10.5 -10.5 10.5 -27.5q0 -22 -16.5 -37.5t-38.5 -15.5q-16 0 -26 11t-10 27q0 21 16.5 37t37.5 16
q16 0 26.5 -10.5z" />
    <glyph glyph-name="uni1E66" unicode="&#x1e66;" horiz-adv-x="603" 
d="M467 691q56 -17 97 -46l-36 -60q-40 28 -89.5 42t-95.5 14q-73 0 -119.5 -28.5t-50.5 -76.5l-1 -14q0 -38 21.5 -62.5t52.5 -38.5t86 -32q63 -21 101.5 -39.5t65.5 -53t27 -89.5q0 -16 -1 -25q-5 -57 -41 -99.5t-95.5 -66t-133.5 -23.5q-73 0 -140.5 29t-113.5 77l39 59
q41 -47 101 -73t121 -26q86 0 137 36.5t51 98.5q0 39 -21.5 64t-54 39.5t-87.5 32.5q-63 20 -101 38t-64.5 52t-26.5 88q0 15 1 23q5 53 38.5 93t90.5 62t128 22q58 0 114 -17zM454 860h76l-125 -91h-92l-91 91h74l66 -62zM423.5 963.5q10.5 -10.5 10.5 -27.5
q0 -22 -16.5 -37.5t-38.5 -15.5q-16 0 -26 11t-10 27q0 21 16.5 37t37.5 16q16 0 26.5 -10.5z" />
    <glyph glyph-name="uni1E67" unicode="&#x1e67;" horiz-adv-x="464" 
d="M85 19.5q-61 26.5 -94 70.5l34 45q31 -38 82 -61.5t106 -23.5q53 0 87.5 25.5t34.5 66.5q0 34 -28 54.5t-84 43.5q-46 19 -74.5 35t-48.5 42t-20 65q0 67 50.5 107.5t129.5 40.5q55 0 104.5 -17.5t83.5 -46.5l-34 -48q-32 25 -73.5 40t-82.5 15q-49 0 -80.5 -23
t-31.5 -61q0 -33 27 -52.5t84 -42.5q47 -19 76.5 -35t50 -43t20.5 -67q0 -70 -54 -113t-137 -43q-67 0 -128 26.5zM393 703h76l-125 -91h-92l-91 91h74l66 -62zM362.5 806.5q10.5 -10.5 10.5 -27.5q0 -22 -16.5 -37.5t-38.5 -15.5q-16 0 -26 11t-10 27q0 21 16.5 37t37.5 16
q16 0 26.5 -10.5z" />
    <glyph glyph-name="uni1E68" unicode="&#x1e68;" horiz-adv-x="603" 
d="M467 691q56 -17 97 -46l-36 -60q-40 28 -89.5 42t-95.5 14q-73 0 -119.5 -28.5t-50.5 -76.5l-1 -14q0 -38 21.5 -62.5t52.5 -38.5t86 -32q63 -21 101.5 -39.5t65.5 -53t27 -89.5q0 -16 -1 -25q-5 -57 -41 -99.5t-95.5 -66t-133.5 -23.5q-73 0 -140.5 29t-113.5 77l39 59
q41 -47 101 -73t121 -26q86 0 137 36.5t51 98.5q0 39 -21.5 64t-54 39.5t-87.5 32.5q-63 20 -101 38t-64.5 52t-26.5 88q0 15 1 23q5 53 38.5 93t90.5 62t128 22q58 0 114 -17zM263.5 -87.5q10.5 -11.5 10.5 -28.5q0 -23 -17 -39.5t-40 -16.5q-16 0 -27 11.5t-11 28.5
q0 23 17 39.5t40 16.5q17 0 27.5 -11.5zM421.5 851.5q10.5 -11.5 10.5 -28.5q0 -23 -17 -39.5t-40 -16.5q-16 0 -27 11.5t-11 28.5q0 23 17 39.5t40 16.5q17 0 27.5 -11.5z" />
    <glyph glyph-name="uni1E69" unicode="&#x1e69;" horiz-adv-x="464" 
d="M85 19.5q-61 26.5 -94 70.5l34 45q31 -38 82 -61.5t106 -23.5q53 0 87.5 25.5t34.5 66.5q0 34 -28 54.5t-84 43.5q-46 19 -74.5 35t-48.5 42t-20 65q0 67 50.5 107.5t129.5 40.5q55 0 104.5 -17.5t83.5 -46.5l-34 -48q-32 25 -73.5 40t-82.5 15q-49 0 -80.5 -23
t-31.5 -61q0 -33 27 -52.5t84 -42.5q47 -19 76.5 -35t50 -43t20.5 -67q0 -70 -54 -113t-137 -43q-67 0 -128 26.5zM203.5 -87.5q10.5 -11.5 10.5 -28.5q0 -23 -17 -39.5t-40 -16.5q-16 0 -27 11.5t-11 28.5q0 23 17 39.5t40 16.5q17 0 27.5 -11.5zM326.5 711.5
q10.5 -11.5 10.5 -28.5q0 -23 -17 -39.5t-40 -16.5q-16 0 -27 11.5t-11 28.5q0 23 17 39.5t40 16.5q17 0 27.5 -11.5z" />
    <glyph glyph-name="uni1E6C" unicode="&#x1e6c;" horiz-adv-x="553" 
d="M629 700l-12 -64h-231l-128 -636h-69l128 636h-230l12 64h530zM236.5 -87.5q10.5 -11.5 10.5 -28.5q0 -23 -17 -39.5t-40 -16.5q-16 0 -27 11.5t-11 28.5q0 23 17 39.5t40 16.5q17 0 27.5 -11.5z" />
    <glyph glyph-name="uni1E6D" unicode="&#x1e6d;" horiz-adv-x="386" 
d="M161 153q-4 -19 -4 -37q0 -30 13.5 -43.5t41.5 -13.5q45 2 93 30l14 -54q-60 -36 -121 -38q-51 0 -80 27t-29 79q0 18 5 45l62 309h-76l10 53h76l27 134h67l-27 -134h169l-10 -53h-170zM195.5 -87.5q10.5 -11.5 10.5 -28.5q0 -23 -17 -39.5t-40 -16.5q-16 0 -27 11.5
t-11 28.5q0 23 17 39.5t40 16.5q17 0 27.5 -11.5z" />
    <glyph glyph-name="uni1E6E" unicode="&#x1e6e;" horiz-adv-x="553" 
d="M629 700l-12 -64h-231l-128 -636h-69l128 636h-230l12 64h530zM89 -85h236l-9 -47h-236z" />
    <glyph glyph-name="uni1E6F" unicode="&#x1e6f;" horiz-adv-x="386" 
d="M161 153q-4 -19 -4 -37q0 -30 13.5 -43.5t41.5 -13.5q45 2 93 30l14 -54q-60 -36 -121 -38q-51 0 -80 27t-29 79q0 18 5 45l62 309h-76l10 53h76l27 134h67l-27 -134h169l-10 -53h-170zM47 -85h236l-9 -47h-236z" />
    <glyph glyph-name="uni1E78" unicode="&#x1e78;" horiz-adv-x="769" 
d="M681 287q-28 -138 -115.5 -214t-223.5 -76q-118 0 -184 57.5t-66 161.5q0 36 7 71l83 413h68l-82 -413q-6 -31 -6 -59q0 -80 49.5 -124t138.5 -44q103 0 171 59.5t91 167.5l82 413h69zM643.5 793q-24.5 -26 -62.5 -26q-21 0 -37 7.5t-35 21.5q-19 12 -28.5 17t-21.5 5
q-40 0 -50 -48h-42q8 43 31.5 69t61.5 26q21 0 37 -7.5t35 -21.5q19 -12 28.5 -17t21.5 -5q20 0 33.5 12.5t18.5 34.5h42q-8 -42 -32.5 -68zM614 1018l57 -40l-141 -77l-55 17z" />
    <glyph glyph-name="uni1E79" unicode="&#x1e79;" horiz-adv-x="656" 
d="M114.5 38.5q-48.5 42.5 -48.5 118.5q0 27 6 55l62 312h68l-61 -305q-4 -20 -4 -42q0 -57 34.5 -88.5t98.5 -31.5q81 1 140 51.5t77 137.5l55 278h67l-103 -524h-68l22 110q-35 -55 -88.5 -84t-121.5 -30q-87 0 -135.5 42.5zM529.5 635q-24.5 -26 -62.5 -26q-21 0 -37 7.5
t-35 21.5q-19 12 -28.5 17t-21.5 5q-40 0 -50 -48h-42q8 43 31.5 69t61.5 26q21 0 37 -7.5t35 -21.5q19 -12 28.5 -17t21.5 -5q20 0 33.5 12.5t18.5 34.5h42q-8 -42 -32.5 -68zM500 860l57 -40l-141 -77l-55 17z" />
    <glyph glyph-name="uni1E7A" unicode="&#x1e7a;" horiz-adv-x="769" 
d="M681 287q-28 -138 -115.5 -214t-223.5 -76q-118 0 -184 57.5t-66 161.5q0 36 7 71l83 413h68l-82 -413q-6 -31 -6 -59q0 -80 49.5 -124t138.5 -44q103 0 171 59.5t91 167.5l82 413h69zM367 817h236l-9 -47h-236zM461.5 946q9.5 -10 9.5 -26q0 -21 -15.5 -36t-35.5 -15
q-16 0 -25.5 10.5t-9.5 26.5q0 21 15.5 35.5t36.5 14.5q15 0 24.5 -10zM612.5 946q9.5 -10 9.5 -26q0 -21 -15.5 -36t-35.5 -15q-15 0 -25 11t-10 26q0 21 15.5 35.5t36.5 14.5q15 0 24.5 -10z" />
    <glyph glyph-name="uni1E7B" unicode="&#x1e7b;" horiz-adv-x="656" 
d="M114.5 38.5q-48.5 42.5 -48.5 118.5q0 27 6 55l62 312h68l-61 -305q-4 -20 -4 -42q0 -57 34.5 -88.5t98.5 -31.5q81 1 140 51.5t77 137.5l55 278h67l-103 -524h-68l22 110q-35 -55 -88.5 -84t-121.5 -30q-87 0 -135.5 42.5zM287 659h236l-9 -47h-236zM381.5 788
q9.5 -10 9.5 -26q0 -21 -15.5 -36t-35.5 -15q-16 0 -25.5 10.5t-9.5 26.5q0 21 15.5 35.5t36.5 14.5q15 0 24.5 -10zM532.5 788q9.5 -10 9.5 -26q0 -21 -15.5 -36t-35.5 -15q-15 0 -25 11t-10 26q0 21 15.5 35.5t36.5 14.5q15 0 24.5 -10z" />
    <glyph glyph-name="Wgrave" unicode="&#x1e80;" horiz-adv-x="1012" 
d="M1027 700h72l-351 -700h-71l-94 611l-299 -611h-71l-119 700h75l94 -626l300 625l69 1l95 -626zM509 898l118 -124l-61 -7l-125 100z" />
    <glyph glyph-name="wgrave" unicode="&#x1e81;" horiz-adv-x="856" 
d="M911 524l-300 -524h-71l-69 443l-251 -443h-70l-92 524h70l70 -457l250 457h72l68 -457l252 457h71zM448 748l118 -124l-61 -7l-125 100z" />
    <glyph glyph-name="Wacute" unicode="&#x1e82;" horiz-adv-x="1012" 
d="M1027 700h72l-351 -700h-71l-94 611l-299 -611h-71l-119 700h75l94 -626l300 625l69 1l95 -626zM635 898l69 -31l-126 -100l-60 7z" />
    <glyph glyph-name="wacute" unicode="&#x1e83;" horiz-adv-x="856" 
d="M911 524l-300 -524h-71l-69 443l-251 -443h-70l-92 524h70l70 -457l250 457h72l68 -457l252 457h71zM574 748l69 -31l-126 -100l-60 7z" />
    <glyph glyph-name="Wdieresis" unicode="&#x1e84;" horiz-adv-x="1012" 
d="M1027 700h72l-351 -700h-71l-94 611l-299 -611h-71l-119 700h75l94 -626l300 625l69 1l95 -626zM520.5 845.5q9.5 -10.5 9.5 -26.5q0 -21 -16 -36.5t-36 -15.5q-16 0 -26 10.5t-10 26.5q0 21 16 36.5t37 15.5q16 0 25.5 -10.5zM684.5 845.5q9.5 -10.5 9.5 -26.5
q0 -21 -16 -36.5t-36 -15.5q-16 0 -26 10.5t-10 26.5q0 21 16 36.5t37 15.5q16 0 25.5 -10.5z" />
    <glyph glyph-name="wdieresis" unicode="&#x1e85;" horiz-adv-x="856" 
d="M911 524l-300 -524h-71l-69 443l-251 -443h-70l-92 524h70l70 -457l250 457h72l68 -457l252 457h71zM462.5 708.5q9.5 -10.5 9.5 -26.5q0 -21 -16 -36.5t-36 -15.5q-16 0 -26 10.5t-10 26.5q0 21 16 36.5t37 15.5q16 0 25.5 -10.5zM626.5 708.5q9.5 -10.5 9.5 -26.5
q0 -21 -16 -36.5t-36 -15.5q-16 0 -26 10.5t-10 26.5q0 21 16 36.5t37 15.5q16 0 25.5 -10.5z" />
    <glyph glyph-name="uni1E8E" unicode="&#x1e8e;" horiz-adv-x="622" 
d="M704 700l-343 -449l-41 -251h-69l41 250l-199 450h72l172 -378l295 378h72zM459.5 851.5q10.5 -11.5 10.5 -28.5q0 -23 -17 -39.5t-40 -16.5q-16 0 -27 11.5t-11 28.5q0 23 17 39.5t40 16.5q17 0 27.5 -11.5z" />
    <glyph glyph-name="uni1E8F" unicode="&#x1e8f;" horiz-adv-x="494" 
d="M549 524l-362 -602q-35 -59 -80 -89t-94 -30q-61 0 -105 38l36 50q28 -23 69 -23q67 0 122 84l33 51l-113 521h70l89 -451l264 451h71zM366.5 711.5q10.5 -11.5 10.5 -28.5q0 -23 -17 -39.5t-40 -16.5q-16 0 -27 11.5t-11 28.5q0 23 17 39.5t40 16.5q17 0 27.5 -11.5z
" />
    <glyph glyph-name="uni1E92" unicode="&#x1e92;" horiz-adv-x="669" 
d="M683 700l-8 -55l-571 -582h478l-10 -63h-569l9 54l570 582h-460l10 64h551zM310.5 -87.5q10.5 -11.5 10.5 -28.5q0 -23 -17 -39.5t-40 -16.5q-16 0 -27 11.5t-11 28.5q0 23 17 39.5t40 16.5q17 0 27.5 -11.5z" />
    <glyph glyph-name="uni1E93" unicode="&#x1e93;" horiz-adv-x="524" 
d="M524 523l-9 -51l-421 -416h344l-11 -57l-425 1l9 51l421 416l-327 1l10 56zM248.5 -87.5q10.5 -11.5 10.5 -28.5q0 -23 -17 -39.5t-40 -16.5q-16 0 -27 11.5t-11 28.5q0 23 17 39.5t40 16.5q17 0 27.5 -11.5z" />
    <glyph glyph-name="uni1E97" unicode="&#x1e97;" horiz-adv-x="386" 
d="M161 153q-4 -19 -4 -37q0 -30 13.5 -43.5t41.5 -13.5q45 2 93 30l14 -54q-60 -36 -121 -38q-51 0 -80 27t-29 79q0 18 5 45l62 309h-76l10 53h76l27 134h67l-27 -134h169l-10 -53h-170zM204.5 827.5q9.5 -10.5 9.5 -26.5q0 -21 -16 -36.5t-36 -15.5q-16 0 -26 10.5
t-10 26.5q0 21 16 36.5t37 15.5q16 0 25.5 -10.5zM368.5 827.5q9.5 -10.5 9.5 -26.5q0 -21 -16 -36.5t-36 -15.5q-16 0 -26 10.5t-10 26.5q0 21 16 36.5t37 15.5q16 0 25.5 -10.5z" />
    <glyph glyph-name="uni1E9E" unicode="&#x1e9e;" horiz-adv-x="694" 
d="M651 576l-185 -181q78 -10 118.5 -50.5t40.5 -102.5q0 -71 -37.5 -126t-102.5 -85.5t-143 -30.5h-83l12 63h83q57 0 102.5 21t71.5 59t26 86q0 51 -39 79t-112 28h-25l12 62l208 202q-59 42 -152 42q-97 0 -162 -52t-84 -147l-87 -443h-69l87 443q24 124 110.5 193
t214.5 69q125 0 206 -69z" />
    <glyph glyph-name="uni1EA0" unicode="&#x1ea0;" horiz-adv-x="712" 
d="M580 0l-52 186h-389l-113 -186h-73l430 700h72l199 -700h-74zM176 248h335l-106 379zM325.5 -87.5q10.5 -11.5 10.5 -28.5q0 -23 -17 -39.5t-40 -16.5q-16 0 -27 11.5t-11 28.5q0 23 17 39.5t40 16.5q17 0 27.5 -11.5z" />
    <glyph glyph-name="uni1EA1" unicode="&#x1ea1;" horiz-adv-x="676" 
d="M151.5 25.5q-51.5 29.5 -80 82.5t-28.5 121q0 83 38 151.5t103 108t144 39.5t133.5 -39t72.5 -108l29 143h67l-104 -524h-67l21 101q-38 -50 -93 -77.5t-118 -27.5q-66 0 -117.5 29.5zM401 84.5q51 31.5 80.5 85.5t29.5 118q0 80 -49 130t-128 50q-61 0 -112 -31.5
t-81 -85.5t-30 -118q0 -80 49.5 -130t129.5 -50q60 0 111 31.5zM299.5 -87.5q10.5 -11.5 10.5 -28.5q0 -23 -17 -39.5t-40 -16.5q-16 0 -27 11.5t-11 28.5q0 23 17 39.5t40 16.5q17 0 27.5 -11.5z" />
    <glyph glyph-name="uni1EA2" unicode="&#x1ea2;" horiz-adv-x="712" 
d="M580 0l-52 186h-389l-113 -186h-73l430 700h72l199 -700h-74zM176 248h335l-106 379zM511.5 920.5q20.5 -16.5 20.5 -45.5q0 -30 -24.5 -63t-63.5 -62l-38 19q29 21 47 45.5t18 42.5q0 14 -9.5 23t-25.5 9q-22 0 -47 -15l-16 38q42 25 85 25q33 0 53.5 -16.5z" />
    <glyph glyph-name="uni1EA3" unicode="&#x1ea3;" horiz-adv-x="676" 
d="M151.5 25.5q-51.5 29.5 -80 82.5t-28.5 121q0 83 38 151.5t103 108t144 39.5t133.5 -39t72.5 -108l29 143h67l-104 -524h-67l21 101q-38 -50 -93 -77.5t-118 -27.5q-66 0 -117.5 29.5zM401 84.5q51 31.5 80.5 85.5t29.5 118q0 80 -49 130t-128 50q-61 0 -112 -31.5
t-81 -85.5t-30 -118q0 -80 49.5 -130t129.5 -50q60 0 111 31.5zM465 752q20 -17 20 -46q0 -30 -24.5 -63t-63.5 -61l-38 18q29 21 47 45.5t18 42.5q0 14 -9 23t-26 9q-20 0 -46 -15l-17 38q46 26 85 26q34 0 54 -17z" />
    <glyph glyph-name="uni1EA4" unicode="&#x1ea4;" horiz-adv-x="712" 
d="M580 0l-52 186h-389l-113 -186h-73l430 700h72l199 -700h-74zM176 248h335l-106 379zM588 762h-74l-66 62l-92 -62h-76l125 91h92zM531 1002l57 -40l-141 -77l-55 17z" />
    <glyph glyph-name="uni1EA5" unicode="&#x1ea5;" horiz-adv-x="676" 
d="M151.5 25.5q-51.5 29.5 -80 82.5t-28.5 121q0 83 38 151.5t103 108t144 39.5t133.5 -39t72.5 -108l29 143h67l-104 -524h-67l21 101q-38 -50 -93 -77.5t-118 -27.5q-66 0 -117.5 29.5zM401 84.5q51 31.5 80.5 85.5t29.5 118q0 80 -49 130t-128 50q-61 0 -112 -31.5
t-81 -85.5t-30 -118q0 -80 49.5 -130t129.5 -50q60 0 111 31.5zM543 612h-74l-66 62l-92 -62h-76l125 91h92zM486 852l57 -40l-141 -77l-55 17z" />
    <glyph glyph-name="uni1EA6" unicode="&#x1ea6;" horiz-adv-x="712" 
d="M580 0l-52 186h-389l-113 -186h-73l430 700h72l199 -700h-74zM176 248h335l-106 379zM586 762h-74l-66 62l-92 -62h-76l125 91h92zM383 1002l138 -100l-54 -17l-142 77z" />
    <glyph glyph-name="uni1EA7" unicode="&#x1ea7;" horiz-adv-x="676" 
d="M151.5 25.5q-51.5 29.5 -80 82.5t-28.5 121q0 83 38 151.5t103 108t144 39.5t133.5 -39t72.5 -108l29 143h67l-104 -524h-67l21 101q-38 -50 -93 -77.5t-118 -27.5q-66 0 -117.5 29.5zM401 84.5q51 31.5 80.5 85.5t29.5 118q0 80 -49 130t-128 50q-61 0 -112 -31.5
t-81 -85.5t-30 -118q0 -80 49.5 -130t129.5 -50q60 0 111 31.5zM544 612h-74l-66 62l-92 -62h-76l125 91h92zM341 852l138 -100l-54 -17l-142 77z" />
    <glyph glyph-name="uni1EA8" unicode="&#x1ea8;" horiz-adv-x="712" 
d="M580 0l-52 186h-389l-113 -186h-73l430 700h72l199 -700h-74zM176 248h335l-106 379zM534 763h-74l-66 62l-92 -62h-76l125 91h92zM473.5 1021.5q17.5 -14.5 17.5 -38.5q0 -25 -22 -50.5t-59 -47.5l-35 16q27 16 42.5 33.5t15.5 32.5q0 11 -8 17t-21 6q-21 0 -40 -11
l-16 34q41 23 77 23q31 0 48.5 -14.5z" />
    <glyph glyph-name="uni1EA9" unicode="&#x1ea9;" horiz-adv-x="676" 
d="M151.5 25.5q-51.5 29.5 -80 82.5t-28.5 121q0 83 38 151.5t103 108t144 39.5t133.5 -39t72.5 -108l29 143h67l-104 -524h-67l21 101q-38 -50 -93 -77.5t-118 -27.5q-66 0 -117.5 29.5zM401 84.5q51 31.5 80.5 85.5t29.5 118q0 80 -49 130t-128 50q-61 0 -112 -31.5
t-81 -85.5t-30 -118q0 -80 49.5 -130t129.5 -50q60 0 111 31.5zM544 612h-74l-66 62l-92 -62h-76l125 91h92zM483.5 870.5q17.5 -14.5 17.5 -38.5q0 -25 -22 -50.5t-59 -47.5l-35 16q27 16 42.5 33.5t15.5 32.5q0 11 -8 17t-21 6q-21 0 -40 -11l-16 34q41 23 77 23
q31 0 48.5 -14.5z" />
    <glyph glyph-name="uni1EAA" unicode="&#x1eaa;" horiz-adv-x="712" 
d="M580 0l-52 186h-389l-113 -186h-73l430 700h72l199 -700h-74zM176 248h335l-106 379zM593 763h-74l-66 62l-92 -62h-76l125 91h92zM591.5 920q-24.5 -26 -62.5 -26q-21 0 -37 7.5t-35 21.5q-19 12 -28.5 17t-21.5 5q-40 0 -50 -48h-42q8 43 31.5 69t61.5 26q21 0 37 -7.5
t35 -21.5q19 -12 28.5 -17t21.5 -5q20 0 33.5 12.5t18.5 34.5h42q-8 -42 -32.5 -68z" />
    <glyph glyph-name="uni1EAB" unicode="&#x1eab;" horiz-adv-x="676" 
d="M151.5 25.5q-51.5 29.5 -80 82.5t-28.5 121q0 83 38 151.5t103 108t144 39.5t133.5 -39t72.5 -108l29 143h67l-104 -524h-67l21 101q-38 -50 -93 -77.5t-118 -27.5q-66 0 -117.5 29.5zM401 84.5q51 31.5 80.5 85.5t29.5 118q0 80 -49 130t-128 50q-61 0 -112 -31.5
t-81 -85.5t-30 -118q0 -80 49.5 -130t129.5 -50q60 0 111 31.5zM542 612h-74l-66 62l-92 -62h-76l125 91h92zM540.5 769q-24.5 -26 -62.5 -26q-21 0 -37 7.5t-35 21.5q-19 12 -28.5 17t-21.5 5q-40 0 -50 -48h-42q8 43 31.5 69t61.5 26q21 0 37 -7.5t35 -21.5
q19 -12 28.5 -17t21.5 -5q20 0 33.5 12.5t18.5 34.5h42q-8 -42 -32.5 -68z" />
    <glyph glyph-name="uni1EAC" unicode="&#x1eac;" horiz-adv-x="712" 
d="M580 0l-52 186h-389l-113 -186h-73l430 700h72l199 -700h-74zM176 248h335l-106 379zM325.5 -87.5q10.5 -11.5 10.5 -28.5q0 -23 -17 -39.5t-40 -16.5q-16 0 -27 11.5t-11 28.5q0 23 17 39.5t40 16.5q17 0 27.5 -11.5zM576 769h-69l-55 76l-86 -76h-69l127 125h74z" />
    <glyph glyph-name="uni1EAD" unicode="&#x1ead;" horiz-adv-x="676" 
d="M151.5 25.5q-51.5 29.5 -80 82.5t-28.5 121q0 83 38 151.5t103 108t144 39.5t133.5 -39t72.5 -108l29 143h67l-104 -524h-67l21 101q-38 -50 -93 -77.5t-118 -27.5q-66 0 -117.5 29.5zM401 84.5q51 31.5 80.5 85.5t29.5 118q0 80 -49 130t-128 50q-61 0 -112 -31.5
t-81 -85.5t-30 -118q0 -80 49.5 -130t129.5 -50q60 0 111 31.5zM299.5 -87.5q10.5 -11.5 10.5 -28.5q0 -23 -17 -39.5t-40 -16.5q-16 0 -27 11.5t-11 28.5q0 23 17 39.5t40 16.5q17 0 27.5 -11.5zM514 619h-69l-55 76l-86 -76h-69l127 125h74z" />
    <glyph glyph-name="uni1EAE" unicode="&#x1eae;" horiz-adv-x="712" 
d="M580 0l-52 186h-389l-113 -186h-73l430 700h72l199 -700h-74zM176 248h335l-106 379zM390 818q17 -16 48 -16t55 16t30 41h51q-11 -46 -52 -75.5t-93 -29.5q-47 0 -75.5 24t-28.5 64q0 11 1 17h50q-3 -25 14 -41zM528 995l57 -40l-141 -77l-55 17z" />
    <glyph glyph-name="uni1EAF" unicode="&#x1eaf;" horiz-adv-x="676" 
d="M151.5 25.5q-51.5 29.5 -80 82.5t-28.5 121q0 83 38 151.5t103 108t144 39.5t133.5 -39t72.5 -108l29 143h67l-104 -524h-67l21 101q-38 -50 -93 -77.5t-118 -27.5q-66 0 -117.5 29.5zM401 84.5q51 31.5 80.5 85.5t29.5 118q0 80 -49 130t-128 50q-61 0 -112 -31.5
t-81 -85.5t-30 -118q0 -80 49.5 -130t129.5 -50q60 0 111 31.5zM349 676q17 -16 48 -16t55 16t30 41h51q-11 -46 -52 -75.5t-93 -29.5q-47 0 -75.5 24t-28.5 64q0 11 1 17h50q-3 -25 14 -41zM487 853l57 -40l-141 -77l-55 17z" />
    <glyph glyph-name="uni1EB0" unicode="&#x1eb0;" horiz-adv-x="712" 
d="M580 0l-52 186h-389l-113 -186h-73l430 700h72l199 -700h-74zM176 248h335l-106 379zM398 818q17 -16 48 -16t55 16t30 41h51q-11 -46 -52 -75.5t-93 -29.5q-47 0 -75.5 24t-28.5 64q0 11 1 17h50q-3 -25 14 -41zM390 995l138 -100l-54 -17l-142 77z" />
    <glyph glyph-name="uni1EB1" unicode="&#x1eb1;" horiz-adv-x="676" 
d="M151.5 25.5q-51.5 29.5 -80 82.5t-28.5 121q0 83 38 151.5t103 108t144 39.5t133.5 -39t72.5 -108l29 143h67l-104 -524h-67l21 101q-38 -50 -93 -77.5t-118 -27.5q-66 0 -117.5 29.5zM401 84.5q51 31.5 80.5 85.5t29.5 118q0 80 -49 130t-128 50q-61 0 -112 -31.5
t-81 -85.5t-30 -118q0 -80 49.5 -130t129.5 -50q60 0 111 31.5zM349 676q17 -16 48 -16t55 16t30 41h51q-11 -46 -52 -75.5t-93 -29.5q-47 0 -75.5 24t-28.5 64q0 11 1 17h50q-3 -25 14 -41zM341 853l138 -100l-54 -17l-142 77z" />
    <glyph glyph-name="uni1EB2" unicode="&#x1eb2;" horiz-adv-x="712" 
d="M580 0l-52 186h-389l-113 -186h-73l430 700h72l199 -700h-74zM176 248h335l-106 379zM399 818q17 -16 48 -16t55 16t30 41h51q-11 -46 -52 -75.5t-93 -29.5q-47 0 -75.5 24t-28.5 64q0 11 1 17h50q-3 -25 14 -41zM533.5 1013.5q17.5 -14.5 17.5 -38.5q0 -25 -22 -50.5
t-59 -47.5l-35 16q27 16 42.5 33.5t15.5 32.5q0 11 -8 17t-21 6q-21 0 -40 -11l-16 34q41 23 77 23q31 0 48.5 -14.5z" />
    <glyph glyph-name="uni1EB3" unicode="&#x1eb3;" horiz-adv-x="676" 
d="M151.5 25.5q-51.5 29.5 -80 82.5t-28.5 121q0 83 38 151.5t103 108t144 39.5t133.5 -39t72.5 -108l29 143h67l-104 -524h-67l21 101q-38 -50 -93 -77.5t-118 -27.5q-66 0 -117.5 29.5zM401 84.5q51 31.5 80.5 85.5t29.5 118q0 80 -49 130t-128 50q-61 0 -112 -31.5
t-81 -85.5t-30 -118q0 -80 49.5 -130t129.5 -50q60 0 111 31.5zM349 676q17 -16 48 -16t55 16t30 41h51q-11 -46 -52 -75.5t-93 -29.5q-47 0 -75.5 24t-28.5 64q0 11 1 17h50q-3 -25 14 -41zM483.5 871.5q17.5 -14.5 17.5 -38.5q0 -25 -22 -50.5t-59 -47.5l-35 16
q27 16 42.5 33.5t15.5 32.5q0 11 -8 17t-21 6q-21 0 -40 -11l-16 34q41 23 77 23q31 0 48.5 -14.5z" />
    <glyph glyph-name="uni1EB4" unicode="&#x1eb4;" horiz-adv-x="712" 
d="M580 0l-52 186h-389l-113 -186h-73l430 700h72l199 -700h-74zM176 248h335l-106 379zM376 820q17 -16 48 -16t55 16t30 41h51q-11 -46 -52 -75.5t-93 -29.5q-47 0 -75.5 24t-28.5 64q0 11 1 17h50q-3 -25 14 -41zM577.5 934q-24.5 -26 -62.5 -26q-21 0 -37 7.5t-35 21.5
q-19 12 -28.5 17t-21.5 5q-40 0 -50 -48h-42q8 43 31.5 69t61.5 26q21 0 37 -7.5t35 -21.5q19 -12 28.5 -17t21.5 -5q20 0 33.5 12.5t18.5 34.5h42q-8 -42 -32.5 -68z" />
    <glyph glyph-name="uni1EB5" unicode="&#x1eb5;" horiz-adv-x="676" 
d="M151.5 25.5q-51.5 29.5 -80 82.5t-28.5 121q0 83 38 151.5t103 108t144 39.5t133.5 -39t72.5 -108l29 143h67l-104 -524h-67l21 101q-38 -50 -93 -77.5t-118 -27.5q-66 0 -117.5 29.5zM401 84.5q51 31.5 80.5 85.5t29.5 118q0 80 -49 130t-128 50q-61 0 -112 -31.5
t-81 -85.5t-30 -118q0 -80 49.5 -130t129.5 -50q60 0 111 31.5zM349 676q17 -16 48 -16t55 16t30 41h51q-11 -46 -52 -75.5t-93 -29.5q-47 0 -75.5 24t-28.5 64q0 11 1 17h50q-3 -25 14 -41zM550.5 790q-24.5 -26 -62.5 -26q-21 0 -37 7.5t-35 21.5q-19 12 -28.5 17t-21.5 5
q-40 0 -50 -48h-42q8 43 31.5 69t61.5 26q21 0 37 -7.5t35 -21.5q19 -12 28.5 -17t21.5 -5q20 0 33.5 12.5t18.5 34.5h42q-8 -42 -32.5 -68z" />
    <glyph glyph-name="uni1EB6" unicode="&#x1eb6;" horiz-adv-x="712" 
d="M580 0l-52 186h-389l-113 -186h-73l430 700h72l199 -700h-74zM176 248h335l-106 379zM325.5 -87.5q10.5 -11.5 10.5 -28.5q0 -23 -17 -39.5t-40 -16.5q-16 0 -27 11.5t-11 28.5q0 23 17 39.5t40 16.5q17 0 27.5 -11.5zM385 876q0 -28 16.5 -45.5t43.5 -17.5q31 0 56 22
t33 54h49q-12 -54 -53.5 -89t-92.5 -35q-46 0 -74 28t-28 73q0 7 2 23h49q-1 -4 -1 -13z" />
    <glyph glyph-name="uni1EB7" unicode="&#x1eb7;" horiz-adv-x="676" 
d="M151.5 25.5q-51.5 29.5 -80 82.5t-28.5 121q0 83 38 151.5t103 108t144 39.5t133.5 -39t72.5 -108l29 143h67l-104 -524h-67l21 101q-38 -50 -93 -77.5t-118 -27.5q-66 0 -117.5 29.5zM401 84.5q51 31.5 80.5 85.5t29.5 118q0 80 -49 130t-128 50q-61 0 -112 -31.5
t-81 -85.5t-30 -118q0 -80 49.5 -130t129.5 -50q60 0 111 31.5zM299.5 -87.5q10.5 -11.5 10.5 -28.5q0 -23 -17 -39.5t-40 -16.5q-16 0 -27 11.5t-11 28.5q0 23 17 39.5t40 16.5q17 0 27.5 -11.5zM322 725q0 -28 16.5 -45.5t43.5 -17.5q31 0 56 22t33 54h49
q-12 -54 -53.5 -89t-92.5 -35q-46 0 -74 28t-28 73q0 7 2 23h49q-1 -4 -1 -13z" />
    <glyph glyph-name="uni1EB8" unicode="&#x1eb8;" horiz-adv-x="650" 
d="M654 636h-400l-50 -249h357l-13 -63h-357l-52 -261h412l-12 -63h-481l140 700h468zM336.5 -87.5q10.5 -11.5 10.5 -28.5q0 -23 -17 -39.5t-40 -16.5q-16 0 -27 11.5t-11 28.5q0 23 17 39.5t40 16.5q17 0 27.5 -11.5z" />
    <glyph glyph-name="uni1EB9" unicode="&#x1eb9;" horiz-adv-x="599" 
d="M111 239v-3q0 -83 49.5 -133t132.5 -50q48 0 91 16t76 46l32 -44q-39 -36 -91 -55t-111 -19q-73 0 -128.5 30t-86 84t-30.5 125q0 82 38 148.5t104.5 104.5t146.5 38q104 0 164.5 -62t60.5 -166q0 -25 -5 -60h-443zM193.5 421q-59.5 -49 -76.5 -129h382q1 83 -42.5 130.5
t-122.5 47.5q-81 0 -140.5 -49zM293.5 -87.5q10.5 -11.5 10.5 -28.5q0 -23 -17 -39.5t-40 -16.5q-16 0 -27 11.5t-11 28.5q0 23 17 39.5t40 16.5q17 0 27.5 -11.5z" />
    <glyph glyph-name="uni1EBA" unicode="&#x1eba;" horiz-adv-x="650" 
d="M654 636h-400l-50 -249h357l-13 -63h-357l-52 -261h412l-12 -63h-481l140 700h468zM535.5 920.5q20.5 -16.5 20.5 -45.5q0 -30 -24.5 -63t-63.5 -62l-38 19q29 21 47 45.5t18 42.5q0 14 -9.5 23t-25.5 9q-22 0 -47 -15l-16 38q42 25 85 25q33 0 53.5 -16.5z" />
    <glyph glyph-name="uni1EBB" unicode="&#x1ebb;" horiz-adv-x="599" 
d="M111 239v-3q0 -83 49.5 -133t132.5 -50q48 0 91 16t76 46l32 -44q-39 -36 -91 -55t-111 -19q-73 0 -128.5 30t-86 84t-30.5 125q0 82 38 148.5t104.5 104.5t146.5 38q104 0 164.5 -62t60.5 -166q0 -25 -5 -60h-443zM193.5 421q-59.5 -49 -76.5 -129h382q1 83 -42.5 130.5
t-122.5 47.5q-81 0 -140.5 -49zM420 755q20 -17 20 -46q0 -30 -24.5 -63t-63.5 -61l-38 18q29 21 47 45.5t18 42.5q0 14 -9 23t-26 9q-20 0 -46 -15l-17 38q46 26 85 26q34 0 54 -17z" />
    <glyph glyph-name="uni1EBC" unicode="&#x1ebc;" horiz-adv-x="650" 
d="M654 636h-400l-50 -249h357l-13 -63h-357l-52 -261h412l-12 -63h-481l140 700h468zM588 795q-25 -30 -63 -30q-20 0 -35 8t-35 24q-16 13 -26 19t-22 6q-19 0 -31.5 -14.5t-17.5 -38.5h-48q9 47 33 77t62 30q21 0 36.5 -8.5t34.5 -24.5q18 -13 27 -18.5t20 -5.5
q20 0 33.5 14.5t17.5 38.5h49q-10 -47 -35 -77z" />
    <glyph glyph-name="uni1EBD" unicode="&#x1ebd;" horiz-adv-x="599" 
d="M111 239v-3q0 -83 49.5 -133t132.5 -50q48 0 91 16t76 46l32 -44q-39 -36 -91 -55t-111 -19q-73 0 -128.5 30t-86 84t-30.5 125q0 82 38 148.5t104.5 104.5t146.5 38q104 0 164.5 -62t60.5 -166q0 -25 -5 -60h-443zM193.5 421q-59.5 -49 -76.5 -129h382q1 83 -42.5 130.5
t-122.5 47.5q-81 0 -140.5 -49zM477 649q-25 -30 -63 -30q-20 0 -35 8t-35 24q-16 13 -26 19t-22 6q-19 0 -31.5 -14.5t-17.5 -38.5h-48q9 47 33 77t62 30q21 0 36.5 -8.5t34.5 -24.5q18 -13 27 -18.5t20 -5.5q20 0 33.5 14.5t17.5 38.5h49q-10 -47 -35 -77z" />
    <glyph glyph-name="uni1EBE" unicode="&#x1ebe;" horiz-adv-x="650" 
d="M654 636h-400l-50 -249h357l-13 -63h-357l-52 -261h412l-12 -63h-481l140 700h468zM612 762h-74l-66 62l-92 -62h-76l125 91h92zM555 1002l57 -40l-141 -77l-55 17z" />
    <glyph glyph-name="uni1EBF" unicode="&#x1ebf;" horiz-adv-x="599" 
d="M111 239v-3q0 -83 49.5 -133t132.5 -50q48 0 91 16t76 46l32 -44q-39 -36 -91 -55t-111 -19q-73 0 -128.5 30t-86 84t-30.5 125q0 82 38 148.5t104.5 104.5t146.5 38q104 0 164.5 -62t60.5 -166q0 -25 -5 -60h-443zM193.5 421q-59.5 -49 -76.5 -129h382q1 83 -42.5 130.5
t-122.5 47.5q-81 0 -140.5 -49zM498 615h-74l-66 62l-92 -62h-76l125 91h92zM441 855l57 -40l-141 -77l-55 17z" />
    <glyph glyph-name="uni1EC0" unicode="&#x1ec0;" horiz-adv-x="650" 
d="M654 636h-400l-50 -249h357l-13 -63h-357l-52 -261h412l-12 -63h-481l140 700h468zM610 762h-74l-66 62l-92 -62h-76l125 91h92zM407 1002l138 -100l-54 -17l-142 77z" />
    <glyph glyph-name="uni1EC1" unicode="&#x1ec1;" horiz-adv-x="599" 
d="M111 239v-3q0 -83 49.5 -133t132.5 -50q48 0 91 16t76 46l32 -44q-39 -36 -91 -55t-111 -19q-73 0 -128.5 30t-86 84t-30.5 125q0 82 38 148.5t104.5 104.5t146.5 38q104 0 164.5 -62t60.5 -166q0 -25 -5 -60h-443zM193.5 421q-59.5 -49 -76.5 -129h382q1 83 -42.5 130.5
t-122.5 47.5q-81 0 -140.5 -49zM499 615h-74l-66 62l-92 -62h-76l125 91h92zM296 855l138 -100l-54 -17l-142 77z" />
    <glyph glyph-name="uni1EC2" unicode="&#x1ec2;" horiz-adv-x="650" 
d="M654 636h-400l-50 -249h357l-13 -63h-357l-52 -261h412l-12 -63h-481l140 700h468zM558 763h-74l-66 62l-92 -62h-76l125 91h92zM497.5 1021.5q17.5 -14.5 17.5 -38.5q0 -25 -22 -50.5t-59 -47.5l-35 16q27 16 42.5 33.5t15.5 32.5q0 11 -8 17t-21 6q-21 0 -40 -11
l-16 34q41 23 77 23q31 0 48.5 -14.5z" />
    <glyph glyph-name="uni1EC3" unicode="&#x1ec3;" horiz-adv-x="599" 
d="M111 239v-3q0 -83 49.5 -133t132.5 -50q48 0 91 16t76 46l32 -44q-39 -36 -91 -55t-111 -19q-73 0 -128.5 30t-86 84t-30.5 125q0 82 38 148.5t104.5 104.5t146.5 38q104 0 164.5 -62t60.5 -166q0 -25 -5 -60h-443zM193.5 421q-59.5 -49 -76.5 -129h382q1 83 -42.5 130.5
t-122.5 47.5q-81 0 -140.5 -49zM499 615h-74l-66 62l-92 -62h-76l125 91h92zM438.5 873.5q17.5 -14.5 17.5 -38.5q0 -25 -22 -50.5t-59 -47.5l-35 16q27 16 42.5 33.5t15.5 32.5q0 11 -8 17t-21 6q-21 0 -40 -11l-16 34q41 23 77 23q31 0 48.5 -14.5z" />
    <glyph glyph-name="uni1EC4" unicode="&#x1ec4;" horiz-adv-x="650" 
d="M654 636h-400l-50 -249h357l-13 -63h-357l-52 -261h412l-12 -63h-481l140 700h468zM617 763h-74l-66 62l-92 -62h-76l125 91h92zM615.5 920q-24.5 -26 -62.5 -26q-21 0 -37 7.5t-35 21.5q-19 12 -28.5 17t-21.5 5q-40 0 -50 -48h-42q8 43 31.5 69t61.5 26q21 0 37 -7.5
t35 -21.5q19 -12 28.5 -17t21.5 -5q20 0 33.5 12.5t18.5 34.5h42q-8 -42 -32.5 -68z" />
    <glyph glyph-name="uni1EC5" unicode="&#x1ec5;" horiz-adv-x="599" 
d="M111 239v-3q0 -83 49.5 -133t132.5 -50q48 0 91 16t76 46l32 -44q-39 -36 -91 -55t-111 -19q-73 0 -128.5 30t-86 84t-30.5 125q0 82 38 148.5t104.5 104.5t146.5 38q104 0 164.5 -62t60.5 -166q0 -25 -5 -60h-443zM193.5 421q-59.5 -49 -76.5 -129h382q1 83 -42.5 130.5
t-122.5 47.5q-81 0 -140.5 -49zM497 615h-74l-66 62l-92 -62h-76l125 91h92zM495.5 772q-24.5 -26 -62.5 -26q-21 0 -37 7.5t-35 21.5q-19 12 -28.5 17t-21.5 5q-40 0 -50 -48h-42q8 43 31.5 69t61.5 26q21 0 37 -7.5t35 -21.5q19 -12 28.5 -17t21.5 -5q20 0 33.5 12.5
t18.5 34.5h42q-8 -42 -32.5 -68z" />
    <glyph glyph-name="uni1EC6" unicode="&#x1ec6;" horiz-adv-x="650" 
d="M654 636h-400l-50 -249h357l-13 -63h-357l-52 -261h412l-12 -63h-481l140 700h468zM336.5 -87.5q10.5 -11.5 10.5 -28.5q0 -23 -17 -39.5t-40 -16.5q-16 0 -27 11.5t-11 28.5q0 23 17 39.5t40 16.5q17 0 27.5 -11.5zM587 769h-69l-55 76l-86 -76h-69l127 125h74z" />
    <glyph glyph-name="uni1EC7" unicode="&#x1ec7;" horiz-adv-x="599" 
d="M111 239v-3q0 -83 49.5 -133t132.5 -50q48 0 91 16t76 46l32 -44q-39 -36 -91 -55t-111 -19q-73 0 -128.5 30t-86 84t-30.5 125q0 82 38 148.5t104.5 104.5t146.5 38q104 0 164.5 -62t60.5 -166q0 -25 -5 -60h-443zM193.5 421q-59.5 -49 -76.5 -129h382q1 83 -42.5 130.5
t-122.5 47.5q-81 0 -140.5 -49zM293.5 -87.5q10.5 -11.5 10.5 -28.5q0 -23 -17 -39.5t-40 -16.5q-16 0 -27 11.5t-11 28.5q0 23 17 39.5t40 16.5q17 0 27.5 -11.5zM508 619h-69l-55 76l-86 -76h-69l127 125h74z" />
    <glyph glyph-name="uni1EC8" unicode="&#x1ec8;" horiz-adv-x="289" 
d="M266 700l-140 -700h-69l140 700h69zM324.5 920.5q20.5 -16.5 20.5 -45.5q0 -30 -24.5 -63t-63.5 -62l-38 19q29 21 47 45.5t18 42.5q0 14 -9.5 23t-25.5 9q-22 0 -47 -15l-16 38q42 25 85 25q33 0 53.5 -16.5z" />
    <glyph glyph-name="uni1EC9" unicode="&#x1ec9;" horiz-adv-x="263" 
d="M217 524l-104 -524h-67l104 524h67zM278 752q20 -17 20 -46q0 -30 -24.5 -63t-63.5 -61l-38 18q29 21 47 45.5t18 42.5q0 14 -9 23t-26 9q-20 0 -46 -15l-17 38q46 26 85 26q34 0 54 -17z" />
    <glyph glyph-name="uni1ECA" unicode="&#x1eca;" horiz-adv-x="289" 
d="M266 700l-140 -700h-69l140 700h69zM105.5 -87.5q10.5 -11.5 10.5 -28.5q0 -23 -17 -39.5t-40 -16.5q-16 0 -27 11.5t-11 28.5q0 23 17 39.5t40 16.5q17 0 27.5 -11.5z" />
    <glyph glyph-name="uni1ECB" unicode="&#x1ecb;" horiz-adv-x="263" 
d="M217 524l-104 -524h-67l104 524h67zM249.5 711.5q10.5 -11.5 10.5 -28.5q0 -23 -17 -39.5t-40 -16.5q-16 0 -27 11.5t-11 28.5q0 23 17 39.5t40 16.5q17 0 27.5 -11.5zM92.5 -87.5q10.5 -11.5 10.5 -28.5q0 -23 -17 -39.5t-40 -16.5q-16 0 -27 11.5t-11 28.5
q0 23 17 39.5t40 16.5q17 0 27.5 -11.5z" />
    <glyph glyph-name="uni1ECC" unicode="&#x1ecc;" horiz-adv-x="819" 
d="M637.5 660q77.5 -45 119.5 -122.5t37 -171.5q-4 -101 -60.5 -186.5t-147 -135.5t-193.5 -50q-94 0 -169.5 43t-118.5 117t-43 164q0 105 55 194t147.5 141t198.5 52q97 0 174.5 -45zM298 598.5q-75 -43.5 -120.5 -117t-45.5 -159.5q0 -73 35 -134t96.5 -96t135.5 -35
q84 0 159 44t120 118t45 160q0 73 -35 133t-95.5 95t-134.5 35q-85 0 -160 -43.5zM405.5 -87.5q10.5 -11.5 10.5 -28.5q0 -23 -17 -39.5t-40 -16.5q-16 0 -27 11.5t-11 28.5q0 23 17 39.5t40 16.5q17 0 27.5 -11.5z" />
    <glyph glyph-name="uni1ECD" unicode="&#x1ecd;" horiz-adv-x="621" 
d="M462.5 496.5q54.5 -30.5 84.5 -84.5t30 -124q0 -83 -38.5 -149t-105.5 -103.5t-149 -37.5q-71 0 -125 30.5t-84 84.5t-30 124q0 83 38.5 149t105 103.5t148.5 37.5q71 0 125.5 -30.5zM220 438.5q-50 -29.5 -78.5 -81.5t-28.5 -117q0 -82 48.5 -133t128.5 -51q61 0 111 29
t78.5 81t28.5 118q0 82 -48.5 133t-128.5 51q-61 0 -111 -29.5zM302.5 -87.5q10.5 -11.5 10.5 -28.5q0 -23 -17 -39.5t-40 -16.5q-16 0 -27 11.5t-11 28.5q0 23 17 39.5t40 16.5q17 0 27.5 -11.5z" />
    <glyph glyph-name="uni1ECE" unicode="&#x1ece;" horiz-adv-x="819" 
d="M637.5 660q77.5 -45 119.5 -122.5t37 -171.5q-4 -101 -60.5 -186.5t-147 -135.5t-193.5 -50q-94 0 -169.5 43t-118.5 117t-43 164q0 105 55 194t147.5 141t198.5 52q97 0 174.5 -45zM298 598.5q-75 -43.5 -120.5 -117t-45.5 -159.5q0 -73 35 -134t96.5 -96t135.5 -35
q84 0 159 44t120 118t45 160q0 73 -35 133t-95.5 95t-134.5 35q-85 0 -160 -43.5zM554.5 920.5q20.5 -16.5 20.5 -45.5q0 -30 -24.5 -63t-63.5 -62l-38 19q29 21 47 45.5t18 42.5q0 14 -9.5 23t-25.5 9q-22 0 -47 -15l-16 38q42 25 85 25q33 0 53.5 -16.5z" />
    <glyph glyph-name="uni1ECF" unicode="&#x1ecf;" horiz-adv-x="621" 
d="M462.5 496.5q54.5 -30.5 84.5 -84.5t30 -124q0 -83 -38.5 -149t-105.5 -103.5t-149 -37.5q-71 0 -125 30.5t-84 84.5t-30 124q0 83 38.5 149t105 103.5t148.5 37.5q71 0 125.5 -30.5zM220 438.5q-50 -29.5 -78.5 -81.5t-28.5 -117q0 -82 48.5 -133t128.5 -51q61 0 111 29
t78.5 81t28.5 118q0 82 -48.5 133t-128.5 51q-61 0 -111 -29.5zM431 752q20 -17 20 -46q0 -30 -24.5 -63t-63.5 -61l-38 18q29 21 47 45.5t18 42.5q0 14 -9 23t-26 9q-20 0 -46 -15l-17 38q46 26 85 26q34 0 54 -17z" />
    <glyph glyph-name="uni1ED0" unicode="&#x1ed0;" horiz-adv-x="819" 
d="M637.5 660q77.5 -45 119.5 -122.5t37 -171.5q-4 -101 -60.5 -186.5t-147 -135.5t-193.5 -50q-94 0 -169.5 43t-118.5 117t-43 164q0 105 55 194t147.5 141t198.5 52q97 0 174.5 -45zM298 598.5q-75 -43.5 -120.5 -117t-45.5 -159.5q0 -73 35 -134t96.5 -96t135.5 -35
q84 0 159 44t120 118t45 160q0 73 -35 133t-95.5 95t-134.5 35q-85 0 -160 -43.5zM631 762h-74l-66 62l-92 -62h-76l125 91h92zM574 1002l57 -40l-141 -77l-55 17z" />
    <glyph glyph-name="uni1ED1" unicode="&#x1ed1;" horiz-adv-x="621" 
d="M462.5 496.5q54.5 -30.5 84.5 -84.5t30 -124q0 -83 -38.5 -149t-105.5 -103.5t-149 -37.5q-71 0 -125 30.5t-84 84.5t-30 124q0 83 38.5 149t105 103.5t148.5 37.5q71 0 125.5 -30.5zM220 438.5q-50 -29.5 -78.5 -81.5t-28.5 -117q0 -82 48.5 -133t128.5 -51q61 0 111 29
t78.5 81t28.5 118q0 82 -48.5 133t-128.5 51q-61 0 -111 -29.5zM509 612h-74l-66 62l-92 -62h-76l125 91h92zM452 852l57 -40l-141 -77l-55 17z" />
    <glyph glyph-name="uni1ED2" unicode="&#x1ed2;" horiz-adv-x="819" 
d="M637.5 660q77.5 -45 119.5 -122.5t37 -171.5q-4 -101 -60.5 -186.5t-147 -135.5t-193.5 -50q-94 0 -169.5 43t-118.5 117t-43 164q0 105 55 194t147.5 141t198.5 52q97 0 174.5 -45zM298 598.5q-75 -43.5 -120.5 -117t-45.5 -159.5q0 -73 35 -134t96.5 -96t135.5 -35
q84 0 159 44t120 118t45 160q0 73 -35 133t-95.5 95t-134.5 35q-85 0 -160 -43.5zM629 762h-74l-66 62l-92 -62h-76l125 91h92zM426 1002l138 -100l-54 -17l-142 77z" />
    <glyph glyph-name="uni1ED3" unicode="&#x1ed3;" horiz-adv-x="621" 
d="M462.5 496.5q54.5 -30.5 84.5 -84.5t30 -124q0 -83 -38.5 -149t-105.5 -103.5t-149 -37.5q-71 0 -125 30.5t-84 84.5t-30 124q0 83 38.5 149t105 103.5t148.5 37.5q71 0 125.5 -30.5zM220 438.5q-50 -29.5 -78.5 -81.5t-28.5 -117q0 -82 48.5 -133t128.5 -51q61 0 111 29
t78.5 81t28.5 118q0 82 -48.5 133t-128.5 51q-61 0 -111 -29.5zM510 612h-74l-66 62l-92 -62h-76l125 91h92zM307 852l138 -100l-54 -17l-142 77z" />
    <glyph glyph-name="uni1ED4" unicode="&#x1ed4;" horiz-adv-x="819" 
d="M637.5 660q77.5 -45 119.5 -122.5t37 -171.5q-4 -101 -60.5 -186.5t-147 -135.5t-193.5 -50q-94 0 -169.5 43t-118.5 117t-43 164q0 105 55 194t147.5 141t198.5 52q97 0 174.5 -45zM298 598.5q-75 -43.5 -120.5 -117t-45.5 -159.5q0 -73 35 -134t96.5 -96t135.5 -35
q84 0 159 44t120 118t45 160q0 73 -35 133t-95.5 95t-134.5 35q-85 0 -160 -43.5zM577 763h-74l-66 62l-92 -62h-76l125 91h92zM516.5 1021.5q17.5 -14.5 17.5 -38.5q0 -25 -22 -50.5t-59 -47.5l-35 16q27 16 42.5 33.5t15.5 32.5q0 11 -8 17t-21 6q-21 0 -40 -11l-16 34
q41 23 77 23q31 0 48.5 -14.5z" />
    <glyph glyph-name="uni1ED5" unicode="&#x1ed5;" horiz-adv-x="621" 
d="M462.5 496.5q54.5 -30.5 84.5 -84.5t30 -124q0 -83 -38.5 -149t-105.5 -103.5t-149 -37.5q-71 0 -125 30.5t-84 84.5t-30 124q0 83 38.5 149t105 103.5t148.5 37.5q71 0 125.5 -30.5zM220 438.5q-50 -29.5 -78.5 -81.5t-28.5 -117q0 -82 48.5 -133t128.5 -51q61 0 111 29
t78.5 81t28.5 118q0 82 -48.5 133t-128.5 51q-61 0 -111 -29.5zM510 612h-74l-66 62l-92 -62h-76l125 91h92zM449.5 870.5q17.5 -14.5 17.5 -38.5q0 -25 -22 -50.5t-59 -47.5l-35 16q27 16 42.5 33.5t15.5 32.5q0 11 -8 17t-21 6q-21 0 -40 -11l-16 34q41 23 77 23
q31 0 48.5 -14.5z" />
    <glyph glyph-name="uni1ED6" unicode="&#x1ed6;" horiz-adv-x="819" 
d="M637.5 660q77.5 -45 119.5 -122.5t37 -171.5q-4 -101 -60.5 -186.5t-147 -135.5t-193.5 -50q-94 0 -169.5 43t-118.5 117t-43 164q0 105 55 194t147.5 141t198.5 52q97 0 174.5 -45zM298 598.5q-75 -43.5 -120.5 -117t-45.5 -159.5q0 -73 35 -134t96.5 -96t135.5 -35
q84 0 159 44t120 118t45 160q0 73 -35 133t-95.5 95t-134.5 35q-85 0 -160 -43.5zM636 763h-74l-66 62l-92 -62h-76l125 91h92zM634.5 920q-24.5 -26 -62.5 -26q-21 0 -37 7.5t-35 21.5q-19 12 -28.5 17t-21.5 5q-40 0 -50 -48h-42q8 43 31.5 69t61.5 26q21 0 37 -7.5
t35 -21.5q19 -12 28.5 -17t21.5 -5q20 0 33.5 12.5t18.5 34.5h42q-8 -42 -32.5 -68z" />
    <glyph glyph-name="uni1ED7" unicode="&#x1ed7;" horiz-adv-x="621" 
d="M462.5 496.5q54.5 -30.5 84.5 -84.5t30 -124q0 -83 -38.5 -149t-105.5 -103.5t-149 -37.5q-71 0 -125 30.5t-84 84.5t-30 124q0 83 38.5 149t105 103.5t148.5 37.5q71 0 125.5 -30.5zM220 438.5q-50 -29.5 -78.5 -81.5t-28.5 -117q0 -82 48.5 -133t128.5 -51q61 0 111 29
t78.5 81t28.5 118q0 82 -48.5 133t-128.5 51q-61 0 -111 -29.5zM508 612h-74l-66 62l-92 -62h-76l125 91h92zM506.5 769q-24.5 -26 -62.5 -26q-21 0 -37 7.5t-35 21.5q-19 12 -28.5 17t-21.5 5q-40 0 -50 -48h-42q8 43 31.5 69t61.5 26q21 0 37 -7.5t35 -21.5
q19 -12 28.5 -17t21.5 -5q20 0 33.5 12.5t18.5 34.5h42q-8 -42 -32.5 -68z" />
    <glyph glyph-name="uni1ED8" unicode="&#x1ed8;" horiz-adv-x="819" 
d="M637.5 660q77.5 -45 119.5 -122.5t37 -171.5q-4 -101 -60.5 -186.5t-147 -135.5t-193.5 -50q-94 0 -169.5 43t-118.5 117t-43 164q0 105 55 194t147.5 141t198.5 52q97 0 174.5 -45zM298 598.5q-75 -43.5 -120.5 -117t-45.5 -159.5q0 -73 35 -134t96.5 -96t135.5 -35
q84 0 159 44t120 118t45 160q0 73 -35 133t-95.5 95t-134.5 35q-85 0 -160 -43.5zM405.5 -87.5q10.5 -11.5 10.5 -28.5q0 -23 -17 -39.5t-40 -16.5q-16 0 -27 11.5t-11 28.5q0 23 17 39.5t40 16.5q17 0 27.5 -11.5zM656 769h-69l-55 76l-86 -76h-69l127 125h74z" />
    <glyph glyph-name="uni1ED9" unicode="&#x1ed9;" horiz-adv-x="621" 
d="M462.5 496.5q54.5 -30.5 84.5 -84.5t30 -124q0 -83 -38.5 -149t-105.5 -103.5t-149 -37.5q-71 0 -125 30.5t-84 84.5t-30 124q0 83 38.5 149t105 103.5t148.5 37.5q71 0 125.5 -30.5zM220 438.5q-50 -29.5 -78.5 -81.5t-28.5 -117q0 -82 48.5 -133t128.5 -51q61 0 111 29
t78.5 81t28.5 118q0 82 -48.5 133t-128.5 51q-61 0 -111 -29.5zM302.5 -87.5q10.5 -11.5 10.5 -28.5q0 -23 -17 -39.5t-40 -16.5q-16 0 -27 11.5t-11 28.5q0 23 17 39.5t40 16.5q17 0 27.5 -11.5zM517 619h-69l-55 76l-86 -76h-69l127 125h74z" />
    <glyph glyph-name="uni1EDA" unicode="&#x1eda;" horiz-adv-x="879" 
d="M767.5 514.5q26.5 -61.5 26.5 -131.5q0 -104 -55 -193.5t-147.5 -142.5t-198.5 -53q-94 0 -169.5 43t-118.5 117t-43 164q0 105 55 194t147.5 141t198.5 52q85 0 157 -36q22 -6 40 -6q38 0 63.5 30t25.5 68q0 22 -11 44l61 22q12 -31 12 -61q0 -53 -33 -93.5t-86 -52.5
q49 -44 75.5 -105.5zM688 512q-35 60 -95.5 95t-134.5 35q-85 0 -160 -43.5t-120.5 -117t-45.5 -159.5q0 -73 35 -134t96.5 -96t135.5 -35q84 0 159 44t120 118t45 160q0 73 -35 133zM551 898l69 -31l-126 -100l-60 7z" />
    <glyph glyph-name="uni1EDB" unicode="&#x1edb;" horiz-adv-x="621" 
d="M654 591q0 -55 -36 -96.5t-92 -51.5q51 -62 51 -155q0 -83 -38.5 -149t-105.5 -103.5t-149 -37.5q-71 0 -125 30.5t-84 84.5t-30 124q0 83 38.5 149t105 103.5t148.5 37.5q77 0 133 -35q20 -4 33 -4q38 0 63.5 30t25.5 68q0 22 -11 44l61 22q12 -31 12 -61zM401 85
q50 29 78.5 81t28.5 118q0 82 -48.5 133t-128.5 51q-61 0 -111 -29.5t-78.5 -81.5t-28.5 -117q0 -82 48.5 -133t128.5 -51q61 0 111 29zM430 748l69 -31l-126 -100l-60 7z" />
    <glyph glyph-name="uni1EDC" unicode="&#x1edc;" horiz-adv-x="918" 
d="M767.5 514.5q26.5 -61.5 26.5 -131.5q0 -104 -55 -193.5t-147.5 -142.5t-198.5 -53q-94 0 -169.5 43t-118.5 117t-43 164q0 105 55 194t147.5 141t198.5 52q85 0 157 -36q22 -6 40 -6q38 0 63.5 30t25.5 68q0 22 -11 44l61 22q12 -31 12 -61q0 -53 -33 -93.5t-86 -52.5
q49 -44 75.5 -105.5zM688 512q-35 60 -95.5 95t-134.5 35q-85 0 -160 -43.5t-120.5 -117t-45.5 -159.5q0 -73 35 -134t96.5 -96t135.5 -35q84 0 159 44t120 118t45 160q0 73 -35 133zM425 898l118 -124l-61 -7l-125 100z" />
    <glyph glyph-name="uni1EDD" unicode="&#x1edd;" horiz-adv-x="621" 
d="M654 591q0 -55 -36 -96.5t-92 -51.5q51 -62 51 -155q0 -83 -38.5 -149t-105.5 -103.5t-149 -37.5q-71 0 -125 30.5t-84 84.5t-30 124q0 83 38.5 149t105 103.5t148.5 37.5q77 0 133 -35q20 -4 33 -4q38 0 63.5 30t25.5 68q0 22 -11 44l61 22q12 -31 12 -61zM401 85
q50 29 78.5 81t28.5 118q0 82 -48.5 133t-128.5 51q-61 0 -111 -29.5t-78.5 -81.5t-28.5 -117q0 -82 48.5 -133t128.5 -51q61 0 111 29zM305 748l118 -124l-61 -7l-125 100z" />
    <glyph glyph-name="uni1EDE" unicode="&#x1ede;" horiz-adv-x="879" 
d="M767.5 514.5q26.5 -61.5 26.5 -131.5q0 -104 -55 -193.5t-147.5 -142.5t-198.5 -53q-94 0 -169.5 43t-118.5 117t-43 164q0 105 55 194t147.5 141t198.5 52q85 0 157 -36q22 -6 40 -6q38 0 63.5 30t25.5 68q0 22 -11 44l61 22q12 -31 12 -61q0 -53 -33 -93.5t-86 -52.5
q49 -44 75.5 -105.5zM688 512q-35 60 -95.5 95t-134.5 35q-85 0 -160 -43.5t-120.5 -117t-45.5 -159.5q0 -73 35 -134t96.5 -96t135.5 -35q84 0 159 44t120 118t45 160q0 73 -35 133zM554.5 920.5q20.5 -16.5 20.5 -45.5q0 -30 -24.5 -63t-63.5 -62l-38 19q29 21 47 45.5
t18 42.5q0 14 -9.5 23t-25.5 9q-22 0 -47 -15l-16 38q42 25 85 25q33 0 53.5 -16.5z" />
    <glyph glyph-name="uni1EDF" unicode="&#x1edf;" horiz-adv-x="621" 
d="M654 591q0 -55 -36 -96.5t-92 -51.5q51 -62 51 -155q0 -83 -38.5 -149t-105.5 -103.5t-149 -37.5q-71 0 -125 30.5t-84 84.5t-30 124q0 83 38.5 149t105 103.5t148.5 37.5q77 0 133 -35q20 -4 33 -4q38 0 63.5 30t25.5 68q0 22 -11 44l61 22q12 -31 12 -61zM401 85
q50 29 78.5 81t28.5 118q0 82 -48.5 133t-128.5 51q-61 0 -111 -29.5t-78.5 -81.5t-28.5 -117q0 -82 48.5 -133t128.5 -51q61 0 111 29zM431 752q20 -17 20 -46q0 -30 -24.5 -63t-63.5 -61l-38 18q29 21 47 45.5t18 42.5q0 14 -9 23t-26 9q-20 0 -46 -15l-17 38q46 26 85 26
q34 0 54 -17z" />
    <glyph glyph-name="uni1EE0" unicode="&#x1ee0;" horiz-adv-x="918" 
d="M767.5 514.5q26.5 -61.5 26.5 -131.5q0 -104 -55 -193.5t-147.5 -142.5t-198.5 -53q-94 0 -169.5 43t-118.5 117t-43 164q0 105 55 194t147.5 141t198.5 52q85 0 157 -36q22 -6 40 -6q38 0 63.5 30t25.5 68q0 22 -11 44l61 22q12 -31 12 -61q0 -53 -33 -93.5t-86 -52.5
q49 -44 75.5 -105.5zM688 512q-35 60 -95.5 95t-134.5 35q-85 0 -160 -43.5t-120.5 -117t-45.5 -159.5q0 -73 35 -134t96.5 -96t135.5 -35q84 0 159 44t120 118t45 160q0 73 -35 133zM607 795q-25 -30 -63 -30q-20 0 -35 8t-35 24q-16 13 -26 19t-22 6q-19 0 -31.5 -14.5
t-17.5 -38.5h-48q9 47 33 77t62 30q21 0 36.5 -8.5t34.5 -24.5q18 -13 27 -18.5t20 -5.5q20 0 33.5 14.5t17.5 38.5h49q-10 -47 -35 -77z" />
    <glyph glyph-name="uni1EE1" unicode="&#x1ee1;" horiz-adv-x="621" 
d="M654 591q0 -55 -36 -96.5t-92 -51.5q51 -62 51 -155q0 -83 -38.5 -149t-105.5 -103.5t-149 -37.5q-71 0 -125 30.5t-84 84.5t-30 124q0 83 38.5 149t105 103.5t148.5 37.5q77 0 133 -35q20 -4 33 -4q38 0 63.5 30t25.5 68q0 22 -11 44l61 22q12 -31 12 -61zM401 85
q50 29 78.5 81t28.5 118q0 82 -48.5 133t-128.5 51q-61 0 -111 -29.5t-78.5 -81.5t-28.5 -117q0 -82 48.5 -133t128.5 -51q61 0 111 29zM487 646q-25 -30 -63 -30q-20 0 -35 8t-35 24q-16 13 -26 19t-22 6q-19 0 -31.5 -14.5t-17.5 -38.5h-48q9 47 33 77t62 30
q21 0 36.5 -8.5t34.5 -24.5q18 -13 27 -18.5t20 -5.5q20 0 33.5 14.5t17.5 38.5h49q-10 -47 -35 -77z" />
    <glyph glyph-name="uni1EE2" unicode="&#x1ee2;" horiz-adv-x="918" 
d="M767.5 514.5q26.5 -61.5 26.5 -131.5q0 -104 -55 -193.5t-147.5 -142.5t-198.5 -53q-94 0 -169.5 43t-118.5 117t-43 164q0 105 55 194t147.5 141t198.5 52q85 0 157 -36q22 -6 40 -6q38 0 63.5 30t25.5 68q0 22 -11 44l61 22q12 -31 12 -61q0 -53 -33 -93.5t-86 -52.5
q49 -44 75.5 -105.5zM688 512q-35 60 -95.5 95t-134.5 35q-85 0 -160 -43.5t-120.5 -117t-45.5 -159.5q0 -73 35 -134t96.5 -96t135.5 -35q84 0 159 44t120 118t45 160q0 73 -35 133zM405.5 -87.5q10.5 -11.5 10.5 -28.5q0 -23 -17 -39.5t-40 -16.5q-16 0 -27 11.5t-11 28.5
q0 23 17 39.5t40 16.5q17 0 27.5 -11.5z" />
    <glyph glyph-name="uni1EE3" unicode="&#x1ee3;" horiz-adv-x="621" 
d="M654 591q0 -55 -36 -96.5t-92 -51.5q51 -62 51 -155q0 -83 -38.5 -149t-105.5 -103.5t-149 -37.5q-71 0 -125 30.5t-84 84.5t-30 124q0 83 38.5 149t105 103.5t148.5 37.5q77 0 133 -35q20 -4 33 -4q38 0 63.5 30t25.5 68q0 22 -11 44l61 22q12 -31 12 -61zM401 85
q50 29 78.5 81t28.5 118q0 82 -48.5 133t-128.5 51q-61 0 -111 -29.5t-78.5 -81.5t-28.5 -117q0 -82 48.5 -133t128.5 -51q61 0 111 29zM302.5 -87.5q10.5 -11.5 10.5 -28.5q0 -23 -17 -39.5t-40 -16.5q-16 0 -27 11.5t-11 28.5q0 23 17 39.5t40 16.5q17 0 27.5 -11.5z" />
    <glyph glyph-name="uni1EE4" unicode="&#x1ee4;" horiz-adv-x="769" 
d="M681 287q-28 -138 -115.5 -214t-223.5 -76q-118 0 -184 57.5t-66 161.5q0 36 7 71l83 413h68l-82 -413q-6 -31 -6 -59q0 -80 49.5 -124t138.5 -44q103 0 171 59.5t91 167.5l82 413h69zM345.5 -87.5q10.5 -11.5 10.5 -28.5q0 -23 -17 -39.5t-40 -16.5q-16 0 -27 11.5
t-11 28.5q0 23 17 39.5t40 16.5q17 0 27.5 -11.5z" />
    <glyph glyph-name="uni1EE5" unicode="&#x1ee5;" horiz-adv-x="656" 
d="M114.5 38.5q-48.5 42.5 -48.5 118.5q0 27 6 55l62 312h68l-61 -305q-4 -20 -4 -42q0 -57 34.5 -88.5t98.5 -31.5q81 1 140 51.5t77 137.5l55 278h67l-103 -524h-68l22 110q-35 -55 -88.5 -84t-121.5 -30q-87 0 -135.5 42.5zM288.5 -87.5q10.5 -11.5 10.5 -28.5
q0 -23 -17 -39.5t-40 -16.5q-16 0 -27 11.5t-11 28.5q0 23 17 39.5t40 16.5q17 0 27.5 -11.5z" />
    <glyph glyph-name="uni1EE6" unicode="&#x1ee6;" horiz-adv-x="769" 
d="M681 287q-28 -138 -115.5 -214t-223.5 -76q-118 0 -184 57.5t-66 161.5q0 36 7 71l83 413h68l-82 -413q-6 -31 -6 -59q0 -80 49.5 -124t138.5 -44q103 0 171 59.5t91 167.5l82 413h69zM564.5 920.5q20.5 -16.5 20.5 -45.5q0 -30 -24.5 -63t-63.5 -62l-38 19
q29 21 47 45.5t18 42.5q0 14 -9.5 23t-25.5 9q-22 0 -47 -15l-16 38q42 25 85 25q33 0 53.5 -16.5z" />
    <glyph glyph-name="uni1EE7" unicode="&#x1ee7;" horiz-adv-x="656" 
d="M114.5 38.5q-48.5 42.5 -48.5 118.5q0 27 6 55l62 312h68l-61 -305q-4 -20 -4 -42q0 -57 34.5 -88.5t98.5 -31.5q81 1 140 51.5t77 137.5l55 278h67l-103 -524h-68l22 110q-35 -55 -88.5 -84t-121.5 -30q-87 0 -135.5 42.5zM474 752q20 -17 20 -46q0 -30 -24.5 -63
t-63.5 -61l-38 18q29 21 47 45.5t18 42.5q0 14 -9 23t-26 9q-20 0 -46 -15l-17 38q46 26 85 26q34 0 54 -17z" />
    <glyph glyph-name="uni1EE8" unicode="&#x1ee8;" horiz-adv-x="827" 
d="M870 784q0 -51 -31 -86t-85 -42l-73 -369q-28 -138 -115.5 -214t-223.5 -76q-118 0 -184 57.5t-66 161.5q0 36 7 71l83 413h68l-82 -413q-6 -31 -6 -59q0 -80 49.5 -124t138.5 -44q103 0 171 59.5t91 167.5l82 413h57q30 4 46 23t16 47q0 18 -6 36l57 21q6 -22 6 -43z
M561 898l69 -31l-126 -100l-60 7z" />
    <glyph glyph-name="uni1EE9" unicode="&#x1ee9;" horiz-adv-x="656" 
d="M716 609q0 -51 -30.5 -85.5t-84.5 -42.5l-95 -481h-68l22 110q-35 -55 -88.5 -84t-121.5 -30q-87 0 -135.5 42.5t-48.5 118.5q0 27 6 55l62 312h68l-61 -305q-4 -20 -4 -42q0 -57 34.5 -88.5t98.5 -31.5q81 1 140 51.5t77 137.5l55 278h39q38 0 58 19.5t20 51.5
q0 18 -6 36l57 21q6 -22 6 -43zM473 748l69 -31l-126 -100l-60 7z" />
    </font>
</defs>
</svg>
